<?xml version="1.0" standalone="no"?>
<!DOCTYPE svg PUBLIC "-//W3C//DTD SVG 1.1//EN" "http://www.w3.org/Graphics/SVG/1.1/DTD/svg11.dtd" >
<svg xmlns="http://www.w3.org/2000/svg" xmlns:xlink="http://www.w3.org/1999/xlink" version="1.1">
<metadata>
Created by FontForge 20200314 at Mon Oct  5 09:52:09 2020
 By Robert Madole
Copyright (c) Font Awesome
</metadata>
<!-- Font Awesome Pro 5.15.1 by @fontawesome - https://fontawesome.com License - https://fontawesome.com/license (Commercial License) --><defs>
<font id="FontAwesome5Duotone-Solid" horiz-adv-x="512" >
  <font-face 
    font-family="Font Awesome 5 Duotone Solid"
    font-weight="900"
    font-stretch="normal"
    units-per-em="512"
    panose-1="2 0 5 3 0 0 0 0 0 0"
    ascent="448"
    descent="-64"
    bbox="-1 -65 640.062 448.066"
    underline-thickness="25"
    underline-position="-50"
    unicode-range="U+0020-10F8FF"
  />
    <missing-glyph />
    <glyph glyph-name="search-primary" unicode="&#xf002;" 
d="M504.9 -28.7002l-28.3008 -28.2998c-4.33008 -4.35547 -10.3252 -7.05371 -16.9463 -7.05371s-12.623 2.69824 -16.9531 7.05371l-99.7002 99.7002c-4.32715 4.3418 -7.00293 10.3291 -7.00293 16.9375c0 0.0195312 0.00292969 0.0419922 0.00292969 0.0625v16.2998
l36 36h16.2998h0.0605469c6.60742 0 12.5977 -2.67285 16.9395 -7l99.7002 -99.7002c4.30566 -4.35547 6.96582 -10.3428 6.96582 -16.9453c0 -6.6543 -2.7002 -12.6904 -7.06543 -17.0547z" />
    <glyph glyph-name="film-primary" unicode="&#xf008;" 
d="M488 384c0.0205078 0 0.0400391 0.000976562 0.0605469 0.000976562c13.2119 0 23.9395 -10.7266 23.9395 -23.9395v-0.0615234v-336c0 -0.0205078 0.000976562 -0.0400391 0.000976562 -0.0605469c0 -13.2119 -10.7266 -23.9395 -23.9395 -23.9395h-0.0615234h-8v20
c0 6.62305 -5.37695 12 -12 12h-40c-6.62305 0 -12 -5.37695 -12 -12v-20h-320v20c0 6.62305 -5.37695 12 -12 12h-40c-6.62305 0 -12 -5.37695 -12 -12v-20h-8c-0.0205078 0 -0.0400391 -0.000976562 -0.0605469 -0.000976562
c-13.2119 0 -23.9395 10.7266 -23.9395 23.9395v0.0615234v336c0 0.0205078 -0.000976562 0.0400391 -0.000976562 0.0605469c0 13.2119 10.7266 23.9395 23.9395 23.9395h0.0615234h8v-20c0 -6.62305 5.37695 -12 12 -12h40c6.62305 0 12 5.37695 12 12v20h320v-20
c0 -6.62305 5.37695 -12 12 -12h40c6.62305 0 12 5.37695 12 12v20h8zM96 76v40c0 6.62305 -5.37695 12 -12 12h-40c-6.62305 0 -12 -5.37695 -12 -12v-40c0 -6.62305 5.37695 -12 12 -12h40c6.62305 0 12 5.37695 12 12zM96 172v40c0 6.62305 -5.37695 12 -12 12h-40
c-6.62305 0 -12 -5.37695 -12 -12v-40c0 -6.62305 5.37695 -12 12 -12h40c6.62305 0 12 5.37695 12 12zM96 268v40c0 6.62305 -5.37695 12 -12 12h-40c-6.62305 0 -12 -5.37695 -12 -12v-40c0 -6.62305 5.37695 -12 12 -12h40c6.62305 0 12 5.37695 12 12zM368 60v96
c0 6.62305 -5.37695 12 -12 12h-200c-6.62305 0 -12 -5.37695 -12 -12v-96c0 -6.62305 5.37695 -12 12 -12h200c6.62305 0 12 5.37695 12 12zM368 228v96c0 6.62305 -5.37695 12 -12 12h-200c-6.62305 0 -12 -5.37695 -12 -12v-96c0 -6.62305 5.37695 -12 12 -12h200
c6.62305 0 12 5.37695 12 12zM480 76v40c0 6.62305 -5.37695 12 -12 12h-40c-6.62305 0 -12 -5.37695 -12 -12v-40c0 -6.62305 5.37695 -12 12 -12h40c6.62305 0 12 5.37695 12 12zM480 172v40c0 6.62305 -5.37695 12 -12 12h-40c-6.62305 0 -12 -5.37695 -12 -12v-40
c0 -6.62305 5.37695 -12 12 -12h40c6.62305 0 12 5.37695 12 12zM480 268v40c0 6.62305 -5.37695 12 -12 12h-40c-6.62305 0 -12 -5.37695 -12 -12v-40c0 -6.62305 5.37695 -12 12 -12h40c6.62305 0 12 5.37695 12 12z" />
    <glyph glyph-name="th-large-primary" unicode="&#xf009;" 
d="M488 416c13.2461 0 24 -10.7539 24 -24v-160c0 -13.2461 -10.7539 -24 -24 -24h-192c-13.2461 0 -24 10.7539 -24 24v160c0 13.2461 10.7539 24 24 24h192zM216 416c13.2461 0 24 -10.7539 24 -24v-160c0 -13.2461 -10.7539 -24 -24 -24h-192
c-13.2461 0 -24 10.7539 -24 24v160c0 13.2461 10.7539 24 24 24h192z" />
    <glyph glyph-name="th-list-primary" unicode="&#xf00b;" 
d="M125.33 256c13.2461 0 24 -10.7539 24 -24v-80c0 -13.2461 -10.7539 -24 -24 -24h-101.33c-13.2461 0 -24 10.7539 -24 24v80c0 13.2461 10.7539 24 24 24h101.33zM125.33 416c13.2461 0 24 -10.7539 24 -24v-80c0 -13.2461 -10.7539 -24 -24 -24h-101.33
c-13.2461 0 -24 10.7539 -24 24v80c0 13.2461 10.7539 24 24 24h101.33zM125.33 96c13.2461 0 24 -10.7539 24 -24v-80c0 -13.2461 -10.7539 -24 -24 -24h-101.33c-13.2461 0 -24 10.7539 -24 24v80c0 13.2461 10.7539 24 24 24h101.33z" />
    <glyph glyph-name="check-primary" unicode="&#xf00c;" 
d="M264.67 62.4102l-54.5703 -54.8701c-4.62109 -4.65625 -11.0244 -7.54199 -18.0967 -7.54199c-7 0 -13.3525 2.82812 -17.9629 7.40234l-0.139648 0.139648l-166.4 167.36c-4.6377 4.67188 -7.50488 11.1035 -7.50488 18.2002s2.86719 13.5371 7.50488 18.209
l36.2002 36.4102c4.61816 4.65039 11.0166 7.53125 18.082 7.53125c6.97852 0 13.3125 -2.81152 17.918 -7.36133l0.160156 -0.169922z" />
    <glyph glyph-name="search-plus-primary" unicode="&#xf00e;" 
d="M292 268c6.62305 0 12 -5.37695 12 -12v-32c0 -6.62305 -5.37695 -12 -12 -12h-56v-56c0 -6.62305 -5.37695 -12 -12 -12h-32c-6.62305 0 -12 5.37695 -12 12v56h-56c-6.62305 0 -12 5.37695 -12 12v32c0 6.62305 5.37695 12 12 12h56v56c0 6.62305 5.37695 12 12 12h32
c6.62305 0 12 -5.37695 12 -12v-56h56zM505 5.2998c4.30566 -4.35547 6.9668 -10.3496 6.9668 -16.9531c0 -6.6543 -2.70117 -12.6826 -7.06641 -17.0469l-28.3008 -28.2998c-4.33008 -4.35547 -10.3311 -7.05371 -16.9521 -7.05371s-12.6172 2.69824 -16.9473 7.05371
l-99.7002 99.7002c-4.32715 4.3418 -7 10.332 -7 16.9395v0.0605469v16.2998l36 36h16.2998c0.0205078 0 0.0429688 0.00292969 0.0625 0.00292969c6.6084 0 12.5957 -2.67578 16.9375 -7.00293z" />
    <glyph glyph-name="power-off-primary" unicode="&#xf011;" 
d="M504 192c0 -136.8 -110.8 -247.7 -247.5 -248c-136.5 -0.299805 -248.3 111 -248.5 247.6v0.44043c0 83.2119 40.8418 156.765 103.8 201.76c3.9502 2.83887 8.79395 4.51172 14.0254 4.51172c8.98926 0 16.8418 -4.90137 20.9746 -12.2119l15.7998 -28.0996
c1.94629 -3.4668 3.05664 -7.46582 3.05664 -11.7217c0 -7.88574 -3.77637 -14.9023 -9.65625 -19.2783c-41.335 -30.6172 -68.1504 -79.7432 -68.1504 -135.083c0 -92.7217 75.4287 -167.917 168.15 -167.917c91.5996 0 168.6 74.2002 168 169.1
c-0.362305 54.9336 -26.9893 103.583 -68.0996 134c-5.83984 4.35156 -9.62402 11.3096 -9.62402 19.1445c0 4.26758 1.1582 8.28809 3.12402 11.7559l15.7998 28.0996c4.11523 7.30957 11.9492 12.252 20.9277 12.252c5.16406 0 9.95508 -1.67285 13.8721 -4.45117
c63.0635 -44.8799 104.229 -118.566 104.229 -201.792c0 -0.0830078 -0.229492 -0.0263672 -0.229492 -0.108398z" />
    <glyph glyph-name="cog-primary" unicode="&#xf013;" 
d="M256.35 128.2c-35.2666 0 -63.8994 28.6328 -63.8994 63.8994c0 35.2676 28.6328 63.9004 63.8994 63.9004c35.2676 0 63.9004 -28.6328 63.9004 -63.9004c0 -35.2666 -28.6328 -63.8994 -63.9004 -63.8994z" />
    <glyph glyph-name="download-primary" unicode="&#xf019;" 
d="M488 96c0.0205078 0 0.0400391 0.000976562 0.0605469 0.000976562c13.2119 0 23.9395 -10.7266 23.9395 -23.9395v-0.0615234v-112c0 -0.0205078 0.000976562 -0.0400391 0.000976562 -0.0605469c0 -13.2119 -10.7266 -23.9395 -23.9395 -23.9395h-0.0615234h-464
c-0.0205078 0 -0.0400391 -0.000976562 -0.0605469 -0.000976562c-13.2119 0 -23.9395 10.7266 -23.9395 23.9395v0.0615234v112c0 0.0205078 -0.000976562 0.0400391 -0.000976562 0.0605469c0 13.2119 10.7266 23.9395 23.9395 23.9395h0.0615234h146.7l49 -49
c9.28027 -9.31543 22.1318 -15.083 36.3066 -15.083s27.0127 5.76758 36.293 15.083l49 49h146.7zM368 0c8.83105 0 16 7.16895 16 16s-7.16895 16 -16 16s-16 -7.16895 -16 -16s7.16895 -16 16 -16zM432 0c8.83105 0 16 7.16895 16 16s-7.16895 16 -16 16
s-16 -7.16895 -16 -16s7.16895 -16 16 -16z" />
    <glyph glyph-name="inbox-primary" unicode="&#xf01c;" horiz-adv-x="576" 
d="M567.94 204.09c5.07227 -7.61035 8.05859 -16.7969 8.05957 -26.6201v-129.47c0 -26.4922 -21.5078 -48 -48 -48h-480c-26.4922 0 -48 21.5078 -48 48v129.47c0.000976562 9.82324 2.9873 19.0098 8.05957 26.6201l105.69 158.54
c8.60742 12.9082 23.2754 21.3701 39.9404 21.3701h268.619c16.665 0 31.333 -8.46191 39.9404 -21.3701zM376 192h123.08l-85.3301 128h-251.5l-85.3301 -128h123.08l32 -64h112z" />
    <glyph glyph-name="list-alt-primary" unicode="&#xf022;" 
d="M128 248c-22.0762 0 -40 17.9238 -40 40s17.9238 40 40 40s40 -17.9238 40 -40s-17.9238 -40 -40 -40zM128 232c22.0762 0 40 -17.9238 40 -40s-17.9238 -40 -40 -40s-40 17.9238 -40 40s17.9238 40 40 40zM128 136c22.0762 0 40 -17.9238 40 -40s-17.9238 -40 -40 -40
s-40 17.9238 -40 40s17.9238 40 40 40z" />
    <glyph glyph-name="lock-primary" unicode="&#xf023;" horiz-adv-x="448" 
d="M448 176v-192c0 -26.4922 -21.5078 -48 -48 -48h-352c-26.4922 0 -48 21.5078 -48 48v192c0 26.4922 21.5078 48 48 48h352c26.4922 0 48 -21.5078 48 -48z" />
    <glyph glyph-name="flag-primary" unicode="&#xf024;" 
d="M120 392v-0.0820312c0 -19.0254 -9.4668 -35.8125 -24 -45.918v-388c0 -12.1426 -9.85742 -22 -22 -22h-20c-12.1426 0 -22 9.85742 -22 22v388c-14.5342 10.1201 -24.0537 26.9512 -24.0537 45.9883c0 30.9072 25.0928 56 56 56
c30.8926 0 56.0293 -25.1016 56.0537 -55.9883z" />
    <glyph glyph-name="headphones-primary" unicode="&#xf025;" 
d="M168 192c13.2461 0 24 -10.7539 24 -24v-176c0 -13.2461 -10.7539 -24 -24 -24h-24c-61.8145 0 -112 50.1855 -112 112s50.1855 112 112 112h24zM368 192c61.8145 0 112 -50.1855 112 -112s-50.1855 -112 -112 -112h-24c-13.2461 0 -24 10.7539 -24 24v176
c0 13.2461 10.7539 24 24 24h24z" />
    <glyph glyph-name="barcode-primary" unicode="&#xf02a;" 
d="M134.86 0.269531v383.73h17.71v-383.73h-17.71zM197.71 0.269531v383.73h8.86035v-383.73h-8.86035zM0 0v384h18v-384h-18zM54 0.269531v383.73h8.86035v-383.73h-8.86035zM395.14 0.269531v383.73h18v-383.73h-18zM476 384h9.13965v-383.73h-9.13965v383.73z
M251.43 0.269531v383.73h18v-383.73h-18zM332.29 0.269531v383.73h18v-383.73h-18z" />
    <glyph glyph-name="tag-primary" unicode="&#xf02b;" 
 />
    <glyph glyph-name="book-primary" unicode="&#xf02d;" horiz-adv-x="448" 
d="M96 64c-16 0 -32 -12.7998 -32 -32s12.7998 -32 32 -32h328c13.2461 0 24 -10.7539 24 -24v-16c0 -13.2461 -10.7539 -24 -24 -24h-328c-52.9834 0 -96 43.0166 -96 96v320c0 52.9834 43.0166 96 96 96h320c17.6611 0 32 -14.3389 32 -32v-328
c0 -13.2461 -10.7539 -24 -24 -24h-328zM128 314v-20c0 -3.31152 2.68848 -6 6 -6h212c3.31152 0 6 2.68848 6 6v20c0 3.31152 -2.68848 6 -6 6h-212c-3.31152 0 -6 -2.68848 -6 -6zM128 250v-20c0 -3.31152 2.68848 -6 6 -6h212c3.31152 0 6 2.68848 6 6v20
c0 3.31152 -2.68848 6 -6 6h-212c-3.31152 0 -6 -2.68848 -6 -6z" />
    <glyph glyph-name="camera-primary" unicode="&#xf030;" 
d="M464 352c26.4922 0 48 -21.5078 48 -48v-288c0 -26.4922 -21.5078 -48 -48 -48h-416c-26.4922 0 -48 21.5078 -48 48v288c0 26.4922 21.5078 48 48 48h88l12.2998 32.9004c6.81543 18.1719 24.3379 31.0996 44.8779 31.0996h0.0224609h125.5
c0.00683594 0 -0.00292969 0.0214844 0.00488281 0.0214844c20.54 0 38.0801 -12.9492 44.8945 -31.1211l12.4004 -32.9004h88zM256 40c66.2041 0.0546875 119.945 53.7959 120 120c0 66.2295 -53.7705 120 -120 120s-120 -53.7705 -120 -120s53.7705 -120 120 -120z" />
    <glyph glyph-name="pencil-primary" unicode="&#xf040;" 
d="M0.370117 -35.8496l16.1201 67.3594l79 -79l-67.3203 -16.1602c-1.36035 -0.236328 -2.71484 -0.360352 -4.14258 -0.360352s-2.82715 0.124023 -4.1875 0.360352c-11.252 1.9834 -19.834 11.7969 -19.834 23.6143c0 1.42773 0.125 2.82715 0.364258 4.18652z
M412.3 237.22c2.16309 -2.1709 3.50098 -5.16797 3.50098 -8.47168c0 -3.31836 -1.34961 -6.3252 -3.53125 -8.49805l-252.27 -252.25v64h-64v64h-64l252.2 252.22c2.19336 2.17969 5.21777 3.52734 8.55176 3.52734c3.33301 0 6.35449 -1.34766 8.54785 -3.52734z" />
    <glyph glyph-name="map-marker-primary" unicode="&#xf041;" horiz-adv-x="384" 
 />
    <glyph glyph-name="edit-primary" unicode="&#xf044;" horiz-adv-x="576" 
d="M492.8 274.7c1.76172 -1.76953 2.85059 -4.20801 2.85059 -6.89844c0 -2.69141 -1.08887 -5.13281 -2.85059 -6.90137l-218.399 -218.4l-92.8008 -10.2998c-0.71875 -0.0810547 -1.4502 -0.12207 -2.19141 -0.12207c-10.7344 0 -19.4502 8.71484 -19.4502 19.4492
c0 0.741211 0.0615234 1.45312 0.141602 2.17285l10.3008 92.7998l218.399 218.4c1.76953 1.76074 4.20801 2.84961 6.89844 2.84961c2.69141 0 5.13281 -1.08887 6.90137 -2.84961z" />
    <glyph glyph-name="arrows-primary" unicode="&#xf047;" 
d="M128.57 277.29c4.0752 -4.30176 6.58203 -10.1172 6.58203 -16.5049c0 -6.85352 -2.87891 -13.04 -7.49219 -17.415l-55.6602 -51.3701l55.6396 -51.4102c4.62012 -4.375 7.49707 -10.5732 7.49707 -17.4316c0 -6.38281 -2.49707 -12.1875 -6.56641 -16.4883
l-0.459961 -0.469727l-10.8301 -10.8398c-4.34375 -4.3418 -10.3486 -7.02734 -16.9688 -7.02734s-12.6182 2.68555 -16.9619 7.02734l-74 74c-5.78711 5.79102 -9.36914 13.7969 -9.36914 22.624s3.58203 16.8242 9.36914 22.6152l74 74
c4.34375 4.3418 10.3486 7.02734 16.9688 7.02734s12.6182 -2.68555 16.9619 -7.02734l10.8301 -10.8398zM502.62 214.62c5.78809 -5.79102 9.37988 -13.7773 9.37988 -22.6045s-3.58203 -16.8242 -9.37012 -22.6152l-74 -74
c-4.34375 -4.3418 -10.3477 -7.02734 -16.9678 -7.02734c-6.62109 0 -12.6182 2.68555 -16.9619 7.02734l-10.8301 10.8398l-0.459961 0.469727c-4.06934 4.30078 -6.57324 10.1123 -6.57324 16.4951c0 6.8584 2.88281 13.0498 7.50293 17.4248l55.6602 51.3701
l-55.6699 51.3896c-4.62012 4.37598 -7.49707 10.5732 -7.49707 17.4326c0 6.38281 2.49707 12.1865 6.56738 16.4873l0.459961 0.470703l10.8301 10.8398c4.34375 4.34082 10.3477 7.02734 16.9678 7.02734s12.6182 -2.68652 16.9619 -7.02734zM341.76 64.1104
l10.8799 -10.8301c4.3418 -4.34375 7.02734 -10.3486 7.02734 -16.9688s-2.68555 -12.6182 -7.02734 -16.9619l-74 -74c-5.79102 -5.78711 -13.7969 -9.36914 -22.624 -9.36914s-16.8242 3.58203 -22.6152 9.36914l-74 74
c-4.3418 4.34375 -7.02734 10.3486 -7.02734 16.9688s2.68555 12.6182 7.02734 16.9619l10.8398 10.8496l0.469727 0.459961c4.30078 4.06934 10.1123 6.57324 16.4951 6.57324c6.8584 0 13.0498 -2.88281 17.4248 -7.50293l51.3701 -55.6602l51.3701 55.6396
c4.375 4.62012 10.5732 7.49707 17.4316 7.49707c6.38281 0 12.1875 -2.49707 16.4883 -6.56641zM278.62 438.62l73.9795 -73.9902c4.3418 -4.34375 7.02734 -10.3477 7.02734 -16.9678c0 -6.62109 -2.68555 -12.6182 -7.02734 -16.9619l-10.8398 -10.8301
l-0.469727 -0.459961c-4.30078 -4.06934 -10.1123 -6.57324 -16.4951 -6.57324c-6.8584 0 -13.0498 2.88281 -17.4248 7.50293l-51.3701 55.6602l-51.3896 -55.6699c-4.37598 -4.62012 -10.5732 -7.49707 -17.4326 -7.49707c-6.38281 0 -12.1865 2.49707 -16.4873 6.56738
l-0.470703 0.459961l-10.8398 10.8301c-4.34082 4.34375 -7.02734 10.3477 -7.02734 16.9678s2.68652 12.6182 7.02734 16.9619l74 74c5.79199 5.78809 13.7979 9.36914 22.625 9.36914c8.82617 0 16.8232 -3.58105 22.6152 -9.36914z" />
    <glyph glyph-name="fast-backward-primary" unicode="&#xf049;" 
d="M512 352v-320c0 -27.4004 -31.9004 -41.7002 -52.5 -24.5996l-171.5 155.29v-130.69c0 -27.4004 -31.9004 -41.7002 -52.5 -24.5996l-139.5 126.319v115.57l139.5 127.3c20.5996 17.1006 52.5 2.7998 52.5 -24.5898v-131.9l171.5 156.49
c20.5996 17.1006 52.5 2.7998 52.5 -24.5898z" />
    <glyph glyph-name="backward-primary" unicode="&#xf04a;" 
d="M11.4805 216.59l192 160c20.6191 17.1602 52.5195 2.75977 52.5195 -24.5898v-320c0 -27.3896 -31.9004 -41.79 -52.5098 -24.5898l-192 160c-7.03223 5.88477 -11.5078 14.7256 -11.5078 24.6035c0 9.87305 4.47168 18.6914 11.498 24.5762z" />
    <glyph glyph-name="forward-primary" unicode="&#xf04e;" 
d="M500.5 216.59c7.02344 -5.8916 11.4922 -14.7324 11.4922 -24.6094c0 -9.87598 -4.46875 -18.6982 -11.4922 -24.5908l-192 -160c-20.5996 -17.1992 -52.5 -2.7998 -52.5 24.6006v320.01c0 27.4004 31.9004 41.7002 52.5 24.5996z" />
    <glyph glyph-name="fast-forward-primary" unicode="&#xf050;" 
d="M416 134.69l-139.5 -127.301c-20.5996 -17.1992 -52.5 -2.7998 -52.5 24.6006v131.899l-171.5 -156.5c-20.5996 -17.1992 -52.5 -2.7998 -52.5 24.6104v320c0 27.4004 31.9004 41.7002 52.5 24.5996l171.5 -155.409v130.81c0 27.4004 31.9004 41.7002 52.5 24.5996
l139.5 -126.409v-115.5z" />
    <glyph glyph-name="eject-primary" unicode="&#xf052;" horiz-adv-x="448" 
d="M259.38 400.44l175.94 -192c28.1992 -30.7705 6.26953 -80.4404 -35.3799 -80.4404h-351.891c-41.7295 0 -63.5195 49.7305 -35.3799 80.4404l176 192c8.77637 9.55664 21.373 15.5518 35.3584 15.5518c13.9863 0 26.5752 -5.99512 35.3516 -15.5518z" />
    <glyph glyph-name="chevron-left-primary" unicode="&#xf053;" horiz-adv-x="320" 
d="M262.85 402.94l22.7002 -22.6504c4.33105 -4.33105 7.01172 -10.3135 7.01172 -16.917c0 -6.60254 -2.68066 -12.5918 -7.01172 -16.9229l-210.97 -211.351l-40 40c-4.3291 4.33301 -7.00684 10.3145 -7.00684 16.917s2.67773 12.5908 7.00684 16.9238l194.33 194
c4.34375 4.34375 10.3438 7.03223 16.9668 7.03223c6.62207 0 12.6289 -2.68848 16.9727 -7.03223z" />
    <glyph glyph-name="chevron-right-primary" unicode="&#xf054;" horiz-adv-x="320" 
d="M91.25 402.94l194.33 -194c4.33105 -4.33203 7.01074 -10.3145 7.01074 -16.917c0 -6.60352 -2.67969 -12.5918 -7.01074 -16.9238l-40 -40l-211 211.341c-4.33301 4.33008 -7.01562 10.3125 -7.01562 16.916c0 6.60449 2.68262 12.5938 7.01562 16.9238l22.7002 22.6494
c4.3457 4.35645 10.3535 7.05273 16.9863 7.05273c6.62793 0 12.6387 -2.69238 16.9834 -7.04199z" />
    <glyph glyph-name="plus-circle-primary" unicode="&#xf055;" 
d="M400 164c0 -6.62305 -5.37695 -12 -12 -12h-92v-92c0 -6.62305 -5.37695 -12 -12 -12h-56c-6.62305 0 -12 5.37695 -12 12v92h-92c-6.62305 0 -12 5.37695 -12 12v56c0 6.62305 5.37695 12 12 12h92v92c0 6.62305 5.37695 12 12 12h56c6.62305 0 12 -5.37695 12 -12v-92
h92c6.62305 0 12 -5.37695 12 -12v-56z" />
    <glyph glyph-name="times-circle-primary" unicode="&#xf057;" 
d="M377.6 126.9c2.18164 -2.17383 3.53125 -5.17969 3.53125 -8.49902c0 -3.31836 -1.34961 -6.32812 -3.53125 -8.50098l-39.5996 -39.5c-2.17285 -2.18164 -5.17969 -3.53125 -8.49805 -3.53125c-3.31934 0 -6.3291 1.34961 -8.50195 3.53125l-65 65.5996
l-65.0996 -65.5996c-2.17383 -2.18164 -5.17969 -3.53125 -8.49902 -3.53125c-3.31836 0 -6.32812 1.34961 -8.50098 3.53125l-39.5 39.5996c-2.18164 2.17285 -3.53125 5.17969 -3.53125 8.49805c0 3.31934 1.34961 6.3291 3.53125 8.50195l65.5996 65l-65.5996 65.0996
c-2.18164 2.17383 -3.53125 5.17969 -3.53125 8.49902c0 3.31836 1.34961 6.32812 3.53125 8.50098l39.5996 39.6006c2.17285 2.18066 5.17969 3.53125 8.49805 3.53125c3.31934 0 6.3291 -1.35059 8.50195 -3.53125l65 -65.7002l65.0996 65.5996
c2.17383 2.18164 5.17969 3.53125 8.49902 3.53125c3.31836 0 6.32812 -1.34961 8.50098 -3.53125l39.6006 -39.5996c2.18066 -2.17285 3.53125 -5.17969 3.53125 -8.49805c0 -3.31934 -1.35059 -6.3291 -3.53125 -8.50195l-65.7002 -65z" />
    <glyph glyph-name="check-circle-primary" unicode="&#xf058;" 
d="M227.31 60.6904c-2.89551 -2.89453 -6.89355 -4.68555 -11.3076 -4.68555c-4.41309 0 -8.41602 1.79102 -11.3115 4.68555l-104 104c-2.89453 2.89551 -4.68555 6.89355 -4.68555 11.3076c0 4.41309 1.79102 8.41602 4.68555 11.3115l22.6191 22.6309
c2.89648 2.89648 6.89746 4.68945 11.3135 4.68945s8.4209 -1.79297 11.3174 -4.68945l70.0596 -70.0605l150.06 150.061c2.89648 2.89648 6.89746 4.68945 11.3135 4.68945s8.4209 -1.79297 11.3174 -4.68945l22.6191 -22.6309
c2.89453 -2.89551 4.68555 -6.89355 4.68555 -11.3076c0 -4.41309 -1.79102 -8.41602 -4.68555 -11.3115z" />
    <glyph glyph-name="question-circle-primary" unicode="&#xf059;" 
d="M256 110c25.3877 0 46 -20.6123 46 -46s-20.6123 -46 -46 -46s-46 20.6123 -46 46s20.6123 46 46 46zM262.66 358c56.3398 0 116.53 -44 116.53 -102c0 -77 -83.1904 -78.21 -83.1904 -106.67v-1.33008c0 -6.62305 -5.37695 -12 -12 -12h-56
c-6.62305 0 -12 5.37695 -12 12v4c0 41.0596 31.1299 57.4697 54.6504 70.6104c20.1699 11.3398 32.54 19 32.54 34c0 19.8594 -25.2705 33 -45.7002 33c-27.1904 0 -39.4404 -13.1406 -57.2998 -35.79c-2.19824 -2.78613 -5.61035 -4.56152 -9.43066 -4.56152
c-2.71875 0 -5.22656 0.905273 -7.24023 2.43164l-34.6992 26.3096c-2.8877 2.19238 -4.73633 5.66797 -4.73633 9.56934c0 2.46777 0.74707 4.7627 2.02637 6.6709c27.29 40.7598 62.0498 63.7598 116.55 63.7598z" />
    <glyph glyph-name="info-circle-primary" unicode="&#xf05a;" 
d="M256 246c-23.1807 0 -42 18.8193 -42 42s18.8193 42 42 42s42 -18.8193 42 -42s-18.8193 -42 -42 -42zM300 112c6.62305 0 12 -5.37695 12 -12v-24c0 -6.62305 -5.37695 -12 -12 -12h-88c-6.62305 0 -12 5.37695 -12 12v24c0 6.62305 5.37695 12 12 12h12v64h-12
c-6.62305 0 -12 5.37695 -12 12v24c0 6.62305 5.37695 12 12 12h64c6.62305 0 12 -5.37695 12 -12v-100h12z" />
    <glyph glyph-name="crosshairs-primary" unicode="&#xf05b;" 
d="M256 224c17.6611 0 32 -14.3389 32 -32s-14.3389 -32 -32 -32s-32 14.3389 -32 32s14.3389 32 32 32zM272 96c8.83105 0 16 -7.16895 16 -16v-128c0 -8.83105 -7.16895 -16 -16 -16h-32c-8.83105 0 -16 7.16895 -16 16v128c0 8.83105 7.16895 16 16 16h32zM144 224
c8.83105 0 16 -7.16895 16 -16v-32c0 -8.83105 -7.16895 -16 -16 -16h-128c-8.83105 0 -16 7.16895 -16 16v32c0 8.83105 7.16895 16 16 16h128zM496 224c8.83105 0 16 -7.16895 16 -16v-32c0 -8.83105 -7.16895 -16 -16 -16h-128c-8.83105 0 -16 7.16895 -16 16v32
c0 8.83105 7.16895 16 16 16h128zM272 448c8.83105 0 16 -7.16895 16 -16v-128c0 -8.83105 -7.16895 -16 -16 -16h-32c-8.83105 0 -16 7.16895 -16 16v128c0 8.83105 7.16895 16 16 16h32z" />
    <glyph glyph-name="ban-primary" unicode="&#xf05e;" 
d="M256 440c137 0 248 -111 248 -248s-111 -248 -248 -248s-248 111 -248 248s111 248 248 248zM386.11 61.8896c33.2959 33.1201 53.8906 78.9805 53.8906 129.607c0 0.166992 -0.000976562 0.334961 -0.000976562 0.50293
c-0.00292969 101.55 -82.4238 183.97 -183.975 183.97c-101.553 0 -184 -82.4473 -184 -184s82.4473 -184 184 -184c50.7773 0 96.7783 20.6133 130.085 53.9199z" />
    <glyph glyph-name="arrow-left-primary" unicode="&#xf060;" horiz-adv-x="448" 
d="M201.69 -25.4805l-0.709961 0.710938l-193.98 199.329c-4.35742 4.50098 -7.04102 10.6318 -7.04102 17.3848s2.68359 12.8955 7.04102 17.3955l194 199.43c4.25781 4.45703 10.2588 7.23438 16.9033 7.23438c6.28711 0 12.0029 -2.49121 16.207 -6.53418
c0.239258 -0.219727 0.469727 -0.459961 0.699219 -0.700195l22.1309 -22.7695c4.3252 -4.51465 6.98535 -10.6387 6.98535 -17.3799c0 -6.94727 -2.82227 -13.249 -7.38574 -17.7998l-160.73 -158.82l160.73 -158.8c4.60742 -4.52637 7.4668 -10.8262 7.4668 -17.7891
c0 -6.75684 -2.69629 -12.8975 -7.06641 -17.3916l-22.1504 -22.7793c-4.25879 -4.45996 -10.2617 -7.24023 -16.9082 -7.24023c-6.2793 0 -11.9902 2.48633 -16.1914 6.51953z" />
    <glyph glyph-name="arrow-right-primary" unicode="&#xf061;" horiz-adv-x="448" 
d="M246.31 409.48c0.240234 -0.230469 0.480469 -0.470703 0.709961 -0.710938l193.98 -199.329c4.35742 -4.50098 7.04102 -10.6318 7.04102 -17.3848s-2.68359 -12.8955 -7.04102 -17.3955l-194 -199.43c-4.25781 -4.45703 -10.2588 -7.23438 -16.9033 -7.23438
c-6.28711 0 -12.0029 2.49121 -16.207 6.53418c-0.239258 0.219727 -0.469727 0.459961 -0.699219 0.700195l-22.1309 22.7695c-4.3252 4.51465 -6.98535 10.6387 -6.98535 17.3799c0 6.94727 2.82227 13.249 7.38574 17.7998l160.73 158.82l-160.73 158.8
c-4.60742 4.52637 -7.4668 10.8262 -7.4668 17.7891c0 6.75684 2.69629 12.8975 7.06641 17.3916l22.1504 22.7793c4.25879 4.45996 10.2617 7.24023 16.9082 7.24023c6.2793 0 11.9902 -2.48633 16.1914 -6.51953z" />
    <glyph glyph-name="arrow-up-primary" unicode="&#xf062;" horiz-adv-x="448" 
d="M6.51953 214.31c0.230469 0.240234 0.470703 0.480469 0.710938 0.709961l199.329 193.98c4.50098 4.35742 10.6318 7.04102 17.3848 7.04102s12.8955 -2.68359 17.3955 -7.04102l199.43 -194c4.45703 -4.25781 7.23438 -10.2588 7.23438 -16.9033
c0 -6.28711 -2.49121 -12.0029 -6.53418 -16.207c-0.219727 -0.239258 -0.459961 -0.469727 -0.700195 -0.699219l-22.7695 -22.1309c-4.51465 -4.3252 -10.6387 -6.98535 -17.3799 -6.98535c-6.94727 0 -13.249 2.82227 -17.7998 7.38574l-158.82 160.73l-158.8 -160.73
c-4.52637 -4.60742 -10.8262 -7.4668 -17.7891 -7.4668c-6.75684 0 -12.8975 2.69629 -17.3916 7.06641l-22.7891 22.1504c-4.45703 4.25879 -7.23438 10.2588 -7.23438 16.9033c0 6.28223 2.4873 11.9941 6.52344 16.1963z" />
    <glyph glyph-name="arrow-down-primary" unicode="&#xf063;" horiz-adv-x="448" 
d="M441.48 169.69c-0.230469 -0.240234 -0.470703 -0.480469 -0.710938 -0.709961l-199.329 -193.98c-4.50098 -4.35742 -10.6318 -7.04102 -17.3848 -7.04102s-12.8955 2.68359 -17.3955 7.04102l-199.43 194c-4.45703 4.25781 -7.23438 10.2588 -7.23438 16.9033
c0 6.28711 2.49121 12.0029 6.53418 16.207c0.219727 0.239258 0.459961 0.469727 0.700195 0.699219l22.7695 22.1309c4.51465 4.3252 10.6387 6.98535 17.3799 6.98535c6.94727 0 13.249 -2.82227 17.7998 -7.38574l158.82 -160.73l158.8 160.73
c4.52637 4.60742 10.8262 7.4668 17.7891 7.4668c6.75684 0 12.8975 -2.69629 17.3916 -7.06641l22.7793 -22.1504c4.45996 -4.25879 7.24023 -10.2617 7.24023 -16.9082c0 -6.2793 -2.48633 -11.9902 -6.51953 -16.1914z" />
    <glyph glyph-name="share-primary" unicode="&#xf064;" 
d="M506.16 224.3c-0.767578 -0.888672 -1.58203 -1.70215 -2.46973 -2.46973l-176 -152c-15.3906 -13.29 -39.6904 -2.54004 -39.6904 18.1699v304c0 20.6602 24.2803 31.46 39.6904 18.1602l176 -152c5.09766 -4.40234 8.32617 -10.9121 8.32617 -18.1699
c0 -5.99316 -2.21973 -11.4824 -5.85645 -15.6904z" />
    <glyph glyph-name="expand-primary" unicode="&#xf065;" horiz-adv-x="448" 
d="M148 32c6.62305 0 12 -5.37695 12 -12v-40c0 -6.62305 -5.37695 -12 -12 -12h-124c-0.0205078 0 -0.0400391 -0.000976562 -0.0605469 -0.000976562c-13.2119 0 -23.9395 10.7266 -23.9395 23.9395v0.0615234v124c0 6.62305 5.37695 12 12 12h40
c6.62305 0 12 -5.37695 12 -12v-84h84zM424 416c0.0205078 0 0.0400391 0.000976562 0.0605469 0.000976562c13.2119 0 23.9395 -10.7266 23.9395 -23.9395v-0.0615234v-124c0 -6.62305 -5.37695 -12 -12 -12h-40c-6.62305 0 -12 5.37695 -12 12v84h-84
c-6.62305 0 -12 5.37695 -12 12v40c0 6.62305 5.37695 12 12 12h124z" />
    <glyph glyph-name="compress-primary" unicode="&#xf066;" horiz-adv-x="448" 
d="M436 128c6.62305 0 12 -5.37695 12 -12v-40c0 -6.62305 -5.37695 -12 -12 -12h-84v-84c0 -6.62305 -5.37695 -12 -12 -12h-40c-6.62305 0 -12 5.37695 -12 12v124c0 0.0205078 -0.000976562 0.0400391 -0.000976562 0.0605469c0 13.2119 10.7266 23.9395 23.9395 23.9395
h0.0615234h124zM148 416c6.62305 0 12 -5.37695 12 -12v-124c0 -0.0205078 0.000976562 -0.0400391 0.000976562 -0.0605469c0 -13.2119 -10.7266 -23.9395 -23.9395 -23.9395h-0.0615234h-124c-6.62305 0 -12 5.37695 -12 12v40c0 6.62305 5.37695 12 12 12h84v84
c0 6.62305 5.37695 12 12 12h40z" />
    <glyph glyph-name="minus-primary" unicode="&#xf068;" horiz-adv-x="448" 
 />
    <glyph glyph-name="asterisk-primary" unicode="&#xf069;" 
d="M488 81.3203l-0.25 -0.450195l-19.5 -33.7402c-4.16699 -7.18359 -11.9414 -12.0195 -20.8369 -12.0195c-4.38574 0 -8.50977 1.2168 -12.0527 3.26953l-0.379883 0.230469l-178.98 105.39l-179 -105.39c-3.62305 -2.18457 -7.86621 -3.44141 -12.4014 -3.44141
c-8.72168 0 -16.376 4.6084 -20.5986 11.5615l-0.230469 0.399414l-19.5 33.7402c-2.02344 3.51855 -3.18164 7.59668 -3.18164 11.9434c0 8.89844 4.81152 16.6816 12.0117 20.8262l0.410156 0.230469l182.4 100.45l-3.4502 209.17
c-0.00390625 0.173828 -0.00585938 0.348633 -0.00585938 0.524414c0 13.0713 10.4814 23.7061 23.4863 23.9854h39.5498c13.2461 0 24 -10.7539 24 -24v-0.519531l-3.49023 -209.48l182.53 -100.09c7.4248 -4.08301 12.4619 -11.9805 12.4619 -21.0459
c0 -4.17969 -1.11035 -8.12109 -2.99219 -11.5439z" />
    <glyph glyph-name="exclamation-circle-primary" unicode="&#xf06a;" 
d="M278.32 320c8.81152 -0.0224609 15.959 -7.16699 15.959 -15.9834c0 -0.541992 -0.0263672 -1.07812 -0.0791016 -1.60645l-12.7998 -128c-0.806641 -8.07715 -7.63184 -14.4102 -15.9199 -14.4102h-19c-8.28906 0 -15.1143 6.33301 -15.9209 14.4102l-12.7998 128
c-0.0527344 0.52832 -0.0791016 1.04785 -0.0791016 1.58984c0 8.83008 7.16895 16 15.999 16h44.6406zM256 128c17.6611 0 32 -14.3389 32 -32s-14.3389 -32 -32 -32s-32 14.3389 -32 32s14.3389 32 32 32z" />
    <glyph glyph-name="random-primary" unicode="&#xf074;" 
d="M505 329c4.36133 -4.34668 7.0625 -10.3584 7.0625 -16.9971c0 -6.6377 -2.70117 -12.6562 -7.0625 -17.0029l-80 -80c-15 -15 -41 -4.48047 -41 17v40h-32l-220.44 -236.19c-2.19043 -2.3457 -5.30957 -3.80957 -8.76953 -3.80957h-110.79
c-6.62305 0 -12 5.37695 -12 12v56c0 6.62305 5.37695 12 12 12h84l220.44 236.19c2.19043 2.3457 5.31055 3.81348 8.77051 3.81348c0.00292969 0 0.00585938 -0.00390625 0.00878906 -0.00390625h58.7803v40c0 21.4404 25.9404 32 41 17z" />
    <glyph glyph-name="chevron-up-primary" unicode="&#xf077;" horiz-adv-x="448" 
d="M435 89.25l-22.6504 -22.7002c-4.33008 -4.33301 -10.3125 -7.01562 -16.916 -7.01562c-6.60449 0 -12.5938 2.68262 -16.9238 7.01562l-211.34 211l40 40c4.33203 4.33105 10.3135 7.01172 16.917 7.01172c6.60254 0 12.5918 -2.68066 16.9229 -7.01172l193.99 -194.359
c4.34375 -4.34473 7.03223 -10.3447 7.03223 -16.9668c0 -6.62305 -2.68848 -12.6299 -7.03223 -16.9736z" />
    <glyph glyph-name="chevron-down-primary" unicode="&#xf078;" horiz-adv-x="448" 
d="M435 260.85l-194 -194.33c-4.33301 -4.32812 -10.3145 -7.00684 -16.917 -7.00684c-6.60156 0 -12.5898 2.67871 -16.9229 7.00684l-40 40l211.34 211c4.33105 4.33105 10.3135 7.01172 16.917 7.01172c6.60254 0 12.5918 -2.68066 16.9229 -7.01172l22.6602 -22.7295
c4.34375 -4.34473 7.03223 -10.3438 7.03223 -16.9668s-2.68848 -12.6289 -7.03223 -16.9736z" />
    <glyph glyph-name="retweet-primary" unicode="&#xf079;" horiz-adv-x="640" 
d="M259.17 310.72c-15.1201 15.1201 -4.41016 41 17 41h243.521c13.2451 0 24 -10.7539 24 -24v-222.149l40.4092 42.79c4.37695 4.63379 10.5781 7.52734 17.4482 7.52734c6.62402 0 12.6279 -2.69238 16.9717 -7.03809l10.8203 -10.8496
c4.34375 -4.34375 7.03223 -10.3438 7.03223 -16.9668s-2.68848 -12.6289 -7.03223 -16.9736l-100.68 -100.659c-4.34473 -4.34473 -10.3438 -7.03223 -16.9668 -7.03223s-12.6289 2.6875 -16.9736 7.03223l-100.72 100.689
c-4.33496 4.34277 -7.01758 10.3369 -7.01758 16.9521c0 6.61426 2.68262 12.6152 7.01758 16.958l10.8203 10.8203c4.34375 4.34473 10.3447 7.03418 16.9688 7.03418c6.87012 0 13.0742 -2.89062 17.4512 -7.52441l40.4199 -42.79v182.15h-187.521
c-0.0195312 0 -0.0400391 -0.000976562 -0.0595703 -0.000976562c-6.6084 0 -12.5986 2.67383 -16.9404 7.00098z" />
    <glyph glyph-name="shopping-cart-primary" unicode="&#xf07a;" horiz-adv-x="576" 
d="M218.12 96h268.42c13.2441 -0.00195312 23.9971 -10.7549 23.9971 -24c0 -1.83301 -0.207031 -3.60449 -0.59668 -5.32031l-5.52051 -24.2793c18.7207 -9.06641 31.6436 -28.252 31.6436 -50.4326c0 -30.9072 -25.0928 -56 -56 -56s-56 25.0928 -56 56
c0 15.6611 6.37988 29.8652 16.7568 40.0322h-209.641c10.3809 -10.167 16.8252 -24.3379 16.8252 -40.001c0 -30.9072 -25.0928 -56 -56 -56s-56 25.0928 -56 56c0 20.791 11.2842 38.9102 28.125 48.5713l-70.25 343.43h-69.8799c-13.2461 0 -24 10.7539 -24 24v16
c0 13.2461 10.7539 24 24 24h102.53c11.5732 -0.0205078 21.2354 -8.26855 23.4697 -19.1904z" />
    <glyph glyph-name="folder-open-primary" unicode="&#xf07c;" horiz-adv-x="576" 
d="M152 192h400c13.2451 -0.000976562 23.998 -10.7549 23.998 -24c0 -4.39648 -1.2002 -8.54492 -3.26758 -12.0898l-72.4609 -124.16c-11.0957 -19.0205 -31.6797 -31.7461 -55.2695 -31.75h-400c-13.2451 0.000976562 -23.998 10.7549 -23.998 24
c0 4.39648 1.2002 8.54492 3.26758 12.0898l72.4502 124.16c11.0986 19.0234 31.6865 31.75 55.2803 31.75z" />
    <glyph glyph-name="arrows-v-primary" unicode="&#xf07d;" horiz-adv-x="256" 
d="M18.3701 294.59l-11.3701 11.3105c-4.34082 4.36719 -7.02441 10.3906 -7.02441 17.0283s2.68359 12.6543 7.02441 17.0215l98.3799 98.6494c5.78223 5.80762 13.79 9.40332 22.624 9.40332s16.834 -3.5957 22.6162 -9.40332l98.3799 -98.6992
c4.32617 -4.36523 7 -10.3789 7 -17.0039c0 -6.62598 -2.67383 -12.6309 -7 -16.9961l-11.3701 -11.3105c-4.29297 -4.08301 -10.1055 -6.59766 -16.4922 -6.59766c-6.86719 0 -13.0615 2.89844 -17.4277 7.53809l-75.71 79.8994l-75.71 -79.8994
c-4.36621 -4.63965 -10.5674 -7.53125 -17.4336 -7.53125c-6.3877 0 -12.1934 2.50781 -16.4863 6.59082zM237.63 89.4102l11.3701 -11.3604c4.34082 -4.36719 7.02441 -10.3906 7.02441 -17.0283c0 -6.63867 -2.68359 -12.6543 -7.02441 -17.0215l-98.4004 -98.6504
c-5.78125 -5.80664 -13.79 -9.40234 -22.624 -9.40234c-8.83301 0 -16.834 3.5957 -22.6152 9.40234l-98.3604 98.6504c-4.35547 4.36914 -7.0498 10.4023 -7.0498 17.0537c0 6.65039 2.69434 12.6768 7.0498 17.0459l11.3701 11.3105
c4.29297 4.08301 10.1055 6.59766 16.4922 6.59766c6.86719 0 13.0615 -2.89844 17.4277 -7.53809l75.71 -79.8994l75.71 79.8994c4.36621 4.63965 10.5674 7.53125 17.4336 7.53125c6.3877 0 12.1934 -2.50781 16.4863 -6.59082z" />
    <glyph glyph-name="arrows-h-primary" unicode="&#xf07e;" 
d="M358.59 301.63l11.3604 11.3701c4.36719 4.34082 10.3906 7.02441 17.0283 7.02441c6.63867 0 12.6543 -2.68359 17.0215 -7.02441l98.6504 -98.4004c5.80664 -5.78125 9.40234 -13.79 9.40234 -22.624c0 -8.83301 -3.5957 -16.834 -9.40234 -22.6152l-98.6504 -98.3604
c-4.36914 -4.35547 -10.4023 -7.0498 -17.0537 -7.0498c-6.65039 0 -12.6768 2.69434 -17.0459 7.0498l-11.3105 11.3701c-4.08301 4.29297 -6.59766 10.1055 -6.59766 16.4922c0 6.86719 2.89844 13.0615 7.53809 17.4277l79.8994 75.71l-79.8994 75.71
c-4.63965 4.36621 -7.53125 10.5674 -7.53125 17.4336c0 6.3877 2.50781 12.1934 6.59082 16.4863zM153.41 82.3701l-11.3105 -11.3701c-4.36719 -4.34082 -10.3906 -7.02441 -17.0283 -7.02441s-12.6543 2.68359 -17.0215 7.02441l-98.6494 98.3799
c-5.80762 5.78223 -9.40332 13.79 -9.40332 22.624s3.5957 16.834 9.40332 22.6162l98.6992 98.3799c4.36523 4.32617 10.3789 7 17.0039 7c6.62598 0 12.6309 -2.67383 16.9961 -7l11.3105 -11.3701c4.08301 -4.29297 6.59766 -10.1055 6.59766 -16.4922
c0 -6.86719 -2.89844 -13.0615 -7.53809 -17.4277l-79.8994 -75.71l79.8994 -75.71c4.63965 -4.36621 7.53125 -10.5674 7.53125 -17.4336c0 -6.3877 -2.50781 -12.1934 -6.59082 -16.4863z" />
    <glyph glyph-name="cogs-primary" unicode="&#xf085;" horiz-adv-x="640" 
d="M420 144.21c7.17969 -4.15039 11.9805 -11.9062 11.9805 -20.7881c0 -2.9209 -0.522461 -5.72168 -1.48047 -8.31152c-8.90039 -24.2002 -26.4004 -46.4004 -42.5996 -65.8008c-4.3877 -5.2207 -10.9834 -8.51172 -18.3301 -8.51172
c-4.36035 0 -8.44922 1.16992 -11.9707 3.21191l-29.0996 16.7998c-16.0039 -13.7344 -34.6035 -24.5645 -54.9004 -31.6992v-33.6006c0 -0.015625 -0.0205078 -0.03125 -0.0205078 -0.046875c0 -11.7568 -8.49707 -21.5449 -19.6787 -23.5527
c-12.4033 -2.12402 -24.7393 -3.23047 -37.7441 -3.23047s-25.7529 1.10645 -38.1562 3.23047c-11.3135 1.91211 -19.9678 11.7539 -20 23.5996v33.6006c-20.2754 7.17383 -38.8691 17.999 -54.9004 31.6992l-29.0996 -16.6992
c-3.52051 -2.03906 -7.62695 -3.23535 -11.9844 -3.23535c-7.34668 0 -13.9248 3.31738 -18.3154 8.53516c-16.2002 19.3994 -33.2998 41.5996 -42.2002 65.7002c-0.939453 2.5752 -1.48535 5.34961 -1.48535 8.24805c0 8.8916 4.81934 16.666 11.9854 20.8516
l33.2998 16.7998c-1.92188 10.3242 -2.92578 20.6758 -2.92578 31.5537c0 10.877 1.00391 21.5225 2.92578 31.8467l-33.2998 16.8994c-7.17871 4.11035 -11.9873 11.8418 -11.9873 20.7002c0 2.91797 0.525391 5.71484 1.4873 8.2998
c8.90039 24.2002 26 46.4004 42.2002 65.8008c4.3877 5.2207 10.9834 8.51172 18.3301 8.51172c4.35938 0 8.44824 -1.16992 11.9697 -3.21191l29.0996 -16.8105c16.0039 13.7344 34.6045 24.5654 54.9004 31.7002v33.7002
c0 0.0185547 0.0205078 0.0371094 0.0205078 0.0556641c0 11.7021 8.45801 21.4453 19.5898 23.4443c12.5186 2.13281 24.96 3.24316 38.083 3.24316c12.916 0 25.584 -1.07617 37.917 -3.14355c11.3125 -1.91211 19.9678 -11.7529 20 -23.5996v-33.5996
c20.2754 -7.1748 38.8691 -18 54.8994 -31.7002l29.1006 16.7998c3.52051 2.03906 7.62695 3.23535 11.9844 3.23535c7.34668 0 13.9238 -3.31738 18.3154 -8.53516c16.2002 -19.4004 33.2002 -41.6006 42.0996 -65.7998c4 -10.9004 0.100586 -23.2002 -10 -29.1006
l-33.7002 -16.7998c1.92188 -10.3408 2.92676 -20.708 2.92676 -31.6025s-1.00488 -21.5566 -2.92676 -31.8975zM268.7 139.91c59.2002 77 -28.7002 164.899 -105.7 105.7c-59.2002 -77 28.7002 -164.9 105.7 -105.7z" />
    <glyph glyph-name="star-half-primary" unicode="&#xf089;" horiz-adv-x="576" 
d="M110.4 -26.5l25 145.5l-105.7 103c-19 18.5 -8.5 50.7998 17.7002 54.5996l146.1 21.2002l65.2998 132.4c5.12695 10.5508 15.9492 17.8301 28.459 17.8301c0.0878906 0 0.15332 -0.0292969 0.241211 -0.0302734v-439.6l-130.7 -68.6006
c-23.3994 -12.2998 -50.8994 7.60059 -46.3994 33.7002z" />
    <glyph glyph-name="sign-out-primary" unicode="&#xf08b;" 
d="M353 359.7l151.9 -150.601c4.39062 -4.34961 7.1123 -10.3828 7.1123 -17.0469s-2.72168 -12.7021 -7.1123 -17.0527l-152 -150.8c-4.34863 -4.28418 -10.3154 -6.92871 -16.8955 -6.92871c-6.63184 0 -12.6484 2.68555 -17.0049 7.02832l-21.9004 21.9004
c-4.32422 4.35254 -6.99805 10.3477 -6.99805 16.9619c0 7.01562 3.00195 13.3369 7.79883 17.7383l77.5996 71.0996h-191.5h-0.0615234c-13.2129 0 -23.9395 10.7275 -23.9395 23.9395c0 0.0205078 0.000976562 0.0400391 0.000976562 0.0605469v32v0.0615234
c0 13.2129 10.7275 23.9395 23.9395 23.9395c0.0205078 0 0.0400391 -0.000976562 0.0605469 -0.000976562h191.5l-77.5996 71.0996c-4.75293 4.38672 -7.73145 10.668 -7.73145 17.6387c0 6.61914 2.69043 12.6182 7.03125 16.9619l21.8994 21.8994
c4.34668 4.3623 10.3594 7.0625 16.9971 7.0625c6.58691 0 12.5645 -2.65918 16.9033 -6.96191z" />
    <glyph glyph-name="sign-in-primary" unicode="&#xf090;" 
d="M215.6 152.1h-191.6h-0.0615234c-13.2129 0 -23.9395 10.7275 -23.9395 23.9404c0 0.0205078 0.000976562 0.0400391 0.000976562 0.0595703v32v0.0615234c0 13.2129 10.7275 23.9404 23.9395 23.9404c0.0205078 0 0.0400391 -0.00195312 0.0605469 -0.00195312h191.5
l-77.5996 71.1006c-4.7627 4.35938 -7.75098 10.627 -7.75098 17.5859c0 6.6084 2.7002 12.5938 7.05078 16.9141l21.8994 21.8994c4.35742 4.34375 10.3662 7.0293 16.9971 7.0293c6.58008 0 12.5547 -2.64551 16.9033 -6.92871l151.9 -150.7
c4.39062 -4.35059 7.1123 -10.3838 7.1123 -17.0469c0 -6.66406 -2.72168 -12.7031 -7.1123 -17.0527l-151.9 -150.601c-4.33887 -4.30273 -10.3096 -6.96191 -16.8965 -6.96191c-6.6377 0 -12.6572 2.7002 -17.0039 7.0625l-21.8994 21.8994
c-4.34277 4.34375 -7.03027 10.3428 -7.03027 16.9648c0 7.02246 3.0166 13.3447 7.83008 17.7354z" />
    <glyph glyph-name="upload-primary" unicode="&#xf093;" 
d="M192 88.0703v168h-87.7002c-17.7998 0 -26.7002 21.5 -14.0996 34.1094l152.1 152.2c3.50293 3.47852 8.32617 5.62891 13.6475 5.62891s10.1504 -2.15039 13.6523 -5.62891l152.2 -152.2c12.6006 -12.6094 3.7002 -34.1094 -14.0996 -34.1094h-87.7002v-168v-0.0615234
c0 -13.2129 -10.7275 -23.9404 -23.9395 -23.9404c-0.0205078 0 -0.0400391 0.00195312 -0.0605469 0.00195312h-80h-0.0615234c-13.2129 0 -23.9395 10.7266 -23.9395 23.9395c0 0.0205078 0.000976562 0.0400391 0.000976562 0.0605469z" />
    <glyph glyph-name="lemon-primary" unicode="&#xf094;" 
d="M243.88 352.52c-58.1895 -14.5498 -133.81 -90.1592 -148.36 -148.359c-2.00586 -6.5459 -8.10059 -11.3105 -15.2998 -11.3105c-8.83105 0 -16 7.16895 -16 16c0 1.05469 0.105469 2.07227 0.299805 3.07031c17.3809 69.6504 101.801 154.15 171.601 171.6
c0.998047 0.195312 2.0293 0.297852 3.08398 0.297852c8.83008 0 16 -7.16895 16 -16c0 -7.19922 -4.77832 -13.291 -11.3242 -15.2979z" />
    <glyph glyph-name="phone-square-primary" unicode="&#xf098;" horiz-adv-x="448" 
d="M73.0898 125.79l70 30c1.81055 0.776367 3.80469 1.20605 5.89844 1.20605c4.68066 0 8.87012 -2.13184 11.6221 -5.49609l31 -37.8896c48.7002 22.9775 87.8018 62.0791 110.779 110.779l-37.8896 31c-3.36426 2.75195 -5.5127 6.93555 -5.5127 11.6162
c0 2.09375 0.446289 4.09375 1.22266 5.9043l30 70c2.29492 5.34668 7.6084 9.0957 13.791 9.0957c1.16406 0 2.28125 -0.144531 3.36914 -0.395508l65 -15c6.65137 -1.53418 11.627 -7.49609 11.6299 -14.6104c0 -160.29 -129.94 -290 -290 -290h-0.00390625
c-7.11719 0 -13.082 4.97559 -14.6162 11.6299l-15 65c-0.250977 1.08691 -0.382812 2.21777 -0.382812 3.38086c0 6.18555 3.74121 11.4873 9.09277 13.7793z" />
    <glyph glyph-name="unlock-primary" unicode="&#xf09c;" horiz-adv-x="448" 
d="M400 -64h-352c-26.4922 0 -48 21.5078 -48 48v160c0 26.4922 21.5078 48 48 48h352c26.4922 0 48 -21.5078 48 -48v-160c0 -26.4922 -21.5078 -48 -48 -48z" />
    <glyph glyph-name="credit-card-primary" unicode="&#xf09d;" horiz-adv-x="576" 
d="M576 192h-576v128h576v-128z" />
    <glyph glyph-name="rss-primary" unicode="&#xf09e;" horiz-adv-x="448" 
d="M0 32c0 35.3223 28.6777 64 64 64s64 -28.6777 64 -64s-28.6777 -64 -64 -64s-64 28.6777 -64 64z" />
    <glyph glyph-name="hand-point-right-primary" unicode="&#xf0a4;" 
d="M72 272c13.2461 0 24 -10.7539 24 -24v-192c0 -13.2461 -10.7539 -24 -24 -24h-48c-13.2461 0 -24 10.7539 -24 24v192c0 13.2461 10.7539 24 24 24h48zM48 60c11.0381 0 20 8.96191 20 20s-8.96191 20 -20 20s-20 -8.96191 -20 -20s8.96191 -20 20 -20z" />
    <glyph glyph-name="hand-point-left-primary" unicode="&#xf0a5;" 
d="M488 272c13.2461 0 24 -10.7539 24 -24v-192c0 -13.2461 -10.7539 -24 -24 -24h-48c-13.2461 0 -24 10.7539 -24 24v192c0 13.2461 10.7539 24 24 24h48zM464 60c11.0381 0 20 8.96191 20 20s-8.96191 20 -20 20s-20 -8.96191 -20 -20s8.96191 -20 20 -20z" />
    <glyph glyph-name="hand-point-up-primary" unicode="&#xf0a6;" horiz-adv-x="384" 
d="M328 32c13.2461 0 24 -10.7539 24 -24v-48c0 -13.2461 -10.7539 -24 -24 -24h-192c-13.2461 0 -24 10.7539 -24 24v48c0 13.2461 10.7539 24 24 24h192zM304 -36c11.0381 0 20 8.96191 20 20s-8.96191 20 -20 20s-20 -8.96191 -20 -20s8.96191 -20 20 -20z" />
    <glyph glyph-name="hand-point-down-primary" unicode="&#xf0a7;" horiz-adv-x="384" 
d="M328 448c13.2461 0 24 -10.7539 24 -24v-48c0 -13.2461 -10.7539 -24 -24 -24h-192c-13.2461 0 -24 10.7539 -24 24v48c0 13.2461 10.7539 24 24 24h192zM304 380c11.0381 0 20 8.96191 20 20s-8.96191 20 -20 20s-20 -8.96191 -20 -20s8.96191 -20 20 -20z" />
    <glyph glyph-name="arrow-circle-left-primary" unicode="&#xf0a8;" 
d="M285.3 53.2998l-11 -10.8994c-4.33008 -4.35645 -10.3262 -7.05469 -16.9473 -7.05469s-12.6221 2.69824 -16.9521 7.05469l-132.7 132.699c-4.35645 4.33008 -7.05469 10.3262 -7.05469 16.9473s2.69824 12.623 7.05469 16.9531l132.7 132.6
c4.33008 4.35645 10.3252 7.05469 16.9463 7.05469s12.623 -2.69824 16.9531 -7.05469l11 -10.8994c4.33496 -4.34277 7.0166 -10.3359 7.0166 -16.9512c0 -6.81738 -2.8457 -12.9785 -7.41602 -17.3486l-75.5 -72.4004h182.6h0.0615234
c13.2129 0 23.9395 -10.7275 23.9395 -23.9395c0 -0.0205078 -0.000976562 -0.0400391 -0.000976562 -0.0605469v-16v-0.0615234c0 -13.2129 -10.7275 -23.9395 -23.9395 -23.9395c-0.0205078 0 -0.0400391 0.000976562 -0.0605469 0.000976562h-182.6l75.5 -72.4004
c4.57031 -4.37012 7.41895 -10.5273 7.41895 -17.3447c0 -6.61426 -2.68457 -12.6123 -7.01953 -16.9551z" />
    <glyph glyph-name="arrow-circle-right-primary" unicode="&#xf0a9;" 
d="M226.7 330.8l11 10.9004c4.33008 4.35547 10.3262 7.05371 16.9473 7.05371s12.6221 -2.69824 16.9521 -7.05371l132.7 -132.8c4.35645 -4.33008 7.05469 -10.3262 7.05469 -16.9473s-2.69824 -12.623 -7.05469 -16.9531l-132.7 -132.6
c-4.33008 -4.35645 -10.3252 -7.05469 -16.9463 -7.05469s-12.623 2.69824 -16.9531 7.05469l-11 10.8994c-4.33496 4.34277 -7.0166 10.3359 -7.0166 16.9512c0 6.81738 2.8457 12.9785 7.41602 17.3486l75.5 72.4004h-182.6h-0.0615234
c-13.2129 0 -23.9395 10.7275 -23.9395 23.9395c0 0.0205078 0.000976562 0.0400391 0.000976562 0.0605469v16v0.0615234c0 13.2129 10.7275 23.9395 23.9395 23.9395c0.0205078 0 0.0400391 -0.000976562 0.0605469 -0.000976562h182.6l-75.5 72.4004
c-4.56348 4.39453 -7.40527 10.5654 -7.40527 17.3955c0 6.62695 2.67773 12.6387 7.00586 17.0039z" />
    <glyph glyph-name="arrow-circle-up-primary" unicode="&#xf0aa;" 
d="M117.2 162.7l-10.9004 11c-4.35547 4.33008 -7.05371 10.3262 -7.05371 16.9473s2.69824 12.6221 7.05371 16.9521l132.8 132.7c4.33008 4.35645 10.3262 7.05469 16.9473 7.05469s12.623 -2.69824 16.9531 -7.05469l132.6 -132.7
c4.35645 -4.33008 7.05469 -10.3252 7.05469 -16.9463s-2.69824 -12.623 -7.05469 -16.9531l-10.8994 -11c-4.34277 -4.33496 -10.3359 -7.0166 -16.9512 -7.0166c-6.81738 0 -12.9785 2.8457 -17.3486 7.41602l-72.4004 75.5v-182.6v-0.0615234
c0 -13.2129 -10.7275 -23.9395 -23.9395 -23.9395c-0.0205078 0 -0.0400391 0.000976562 -0.0605469 0.000976562h-16h-0.0615234c-13.2129 0 -23.9395 10.7275 -23.9395 23.9395c0 0.0205078 0.000976562 0.0400391 0.000976562 0.0605469v182.6l-72.4004 -75.5
c-4.39453 -4.56348 -10.5654 -7.40527 -17.3955 -7.40527c-6.62695 0 -12.6387 2.67773 -17.0039 7.00586z" />
    <glyph glyph-name="arrow-circle-down-primary" unicode="&#xf0ab;" 
d="M360.4 220.9c4.37012 4.57031 10.5273 7.41895 17.3447 7.41895c6.61426 0 12.6123 -2.68457 16.9551 -7.01953l10.8994 -11c4.35645 -4.33008 7.05469 -10.3262 7.05469 -16.9473s-2.69824 -12.6221 -7.05469 -16.9521l-132.699 -132.7
c-4.33008 -4.35645 -10.3262 -7.05469 -16.9473 -7.05469s-12.623 2.69824 -16.9531 7.05469l-132.6 132.7c-4.35645 4.33008 -7.05469 10.3252 -7.05469 16.9463s2.69824 12.623 7.05469 16.9531l10.8994 11c4.34277 4.33496 10.3359 7.0166 16.9512 7.0166
c6.81738 0 12.9785 -2.8457 17.3486 -7.41602l72.4004 -75.5v182.6v0.0615234c0 13.2129 10.7275 23.9395 23.9395 23.9395c0.0205078 0 0.0400391 -0.000976562 0.0605469 -0.000976562h16h0.0615234c13.2129 0 23.9395 -10.7275 23.9395 -23.9395
c0 -0.0205078 -0.000976562 -0.0400391 -0.000976562 -0.0605469v-182.6z" />
    <glyph glyph-name="arrows-alt-primary" unicode="&#xf0b2;" 
d="M504.93 208.93c4.36816 -4.31543 7.0752 -10.3145 7.0752 -16.9336c0 -6.51758 -2.625 -12.4258 -6.875 -16.7266l-0.200195 -0.199219l-79.6992 -79c-15.2305 -15.0703 -41.2305 -4.41016 -41.2305 16.9297v158c0 21.3301 26 32 41.2305 16.9297zM86.7695 287.93
c15.2305 15.0703 41.2305 4.41016 41.2305 -16.9297v-158c0 -21.3301 -26 -32 -41.2305 -16.9297l-79.6992 79c-4.36816 4.31543 -7.0752 10.3145 -7.0752 16.9336c0 6.51758 2.625 12.4258 6.875 16.7266l0.200195 0.199219zM335 64c21.3301 0 32 -26 16.9297 -41.2305
l-79 -79.6992c-4.31543 -4.36816 -10.3145 -7.0752 -16.9336 -7.0752c-6.51758 0 -12.4258 2.625 -16.7266 6.875l-0.199219 0.200195l-79 79.6992c-15.0703 15.2305 -4.41016 41.2305 16.9297 41.2305h158zM272.93 440.93l79 -79.6992
c15.0703 -15.2305 4.41016 -41.2305 -16.9297 -41.2305h-158c-21.3301 0 -32 26 -16.9297 41.2305l79 79.6992c4.31543 4.36816 10.3145 7.0752 16.9336 7.0752c6.51758 0 12.4258 -2.625 16.7266 -6.875z" />
    <glyph glyph-name="link-primary" unicode="&#xf0c1;" 
d="M410.33 244.51c28 28 28.9004 73.6602 1.15039 102c-13.0801 13.3096 -31.2812 21.5684 -51.3965 21.5684c-19.8662 0 -37.8818 -8.05859 -50.9238 -21.0781l-67.1602 -67.21c-13.0225 -13.0312 -21.0811 -31.0244 -21.0811 -50.8848s8.05859 -37.874 21.0811 -50.9053
c3.19922 -3.1709 6.61914 -6.00684 10.3398 -8.57031c4.05078 -2.77734 6.74512 -7.36914 6.94043 -12.5996c0.0205078 -0.532227 0.03125 -1.06641 0.03125 -1.60352c0 -11.0381 -4.49512 -21.0127 -11.7617 -28.2266l-21.0596 -21.0498
c-2.90625 -2.8877 -6.90918 -4.67285 -11.3252 -4.67285c-3.43652 0 -6.64062 1.0918 -9.25488 2.93262c-39.3887 27.4883 -65.1777 73.1426 -65.1777 124.773c0 41.748 16.9893 79.5273 44.2676 107.017l0.360352 0.370117l67.1992 67.2002
c59.2705 59.2695 155.7 59.2598 215 0c59.3008 -59.2607 59.2705 -155.7 0 -215l-37.1094 -37.1006c-9.83984 -9.83984 -26.7803 -3.2998 -27.29 10.6006c-0.65918 18.3301 -4.05078 36.126 -9.69043 52.7197c-0.574219 1.65234 -0.885742 3.42676 -0.885742 5.27441
c0 4.41699 1.77832 8.42773 4.66602 11.3359z" />
    <glyph glyph-name="flask-primary" unicode="&#xf0c3;" horiz-adv-x="448" 
d="M112 384c-8.83105 0 -16 7.16895 -16 16v32c0 8.83105 7.16895 16 16 16h224c8.83105 0 16 -7.16895 16 -16v-32c0 -8.83105 -7.16895 -16 -16 -16h-224zM437.19 44.5c29.2998 -47 -4.40039 -108.5 -60.1006 -108.5h-306.2c-55.5996 0 -89.3994 61.4004 -60.0996 108.5
l117.21 188.5v119h64v-137.27l-126.89 -204.021c-0.72168 -1.04102 -1.14355 -2.31738 -1.14355 -3.67871c0 -1.29004 0.379883 -2.49219 1.0332 -3.50098c0.979492 -2.0459 3.06055 -3.4541 5.47852 -3.4541c0.137695 0 0.275391 0.00488281 0.411133 0.0136719h306.17
c0.115234 -0.00585938 0.222656 -0.0146484 0.338867 -0.0146484c2.45215 0 4.56934 1.44824 5.54199 3.53516c0.65332 1.00293 1.0332 2.21289 1.0332 3.49902c0 1.34277 -0.415039 2.59082 -1.12402 3.62109l-126.85 204v137.27h64v-119z" />
    <glyph glyph-name="paperclip-primary" unicode="&#xf0c6;" horiz-adv-x="448" 
 />
    <glyph glyph-name="bars-primary" unicode="&#xf0c9;" horiz-adv-x="448" 
d="M432 64c8.83105 0 16 -7.16895 16 -16v-32c0 -8.83105 -7.16895 -16 -16 -16h-416c-8.83105 0 -16 7.16895 -16 16v32c0 8.83105 7.16895 16 16 16h416zM432 384c8.83105 0 16 -7.16895 16 -16v-32c0 -8.83105 -7.16895 -16 -16 -16h-416c-8.83105 0 -16 7.16895 -16 16
v32c0 8.83105 7.16895 16 16 16h416z" />
    <glyph glyph-name="table-primary" unicode="&#xf0ce;" 
d="M464 416c26.4922 0 48 -21.5078 48 -48v-352c0 -26.4922 -21.5078 -48 -48 -48h-416c-26.4922 0 -48 21.5078 -48 48v352c0 26.4922 21.5078 48 48 48h416zM224 32v96h-160v-96h160zM224 192v96h-160v-96h160zM448 32v96h-160v-96h160zM448 192v96h-160v-96h160z" />
    <glyph glyph-name="caret-down-primary" unicode="&#xf0d7;" horiz-adv-x="320" 
d="M160 104h-0.0527344c-5.15137 0 -9.84082 2.01074 -13.3174 5.29004c-0.269531 0.259766 -0.540039 0.519531 -0.799805 0.799805l-128.92 134.28c-12.6299 13.1494 -3.67969 35.6299 14.1699 35.6299h128.92v-176z" />
    <glyph glyph-name="caret-up-primary" unicode="&#xf0d8;" horiz-adv-x="320" 
d="M160 104h-128.92c-17.8496 0 -26.7998 22.4805 -14.1699 35.6299l128.92 134.28c0.259766 0.269531 0.530273 0.540039 0.799805 0.799805c3.47656 3.2793 8.16113 5.29004 13.3125 5.29004h0.0576172v-176z" />
    <glyph glyph-name="caret-left-primary" unicode="&#xf0d9;" horiz-adv-x="192" 
d="M8 192v0.0507812c0 5.14844 2.01074 9.83594 5.29004 13.3096c0.259766 0.279297 0.530273 0.549805 0.799805 0.80957l134.271 128.93c13.1494 12.6309 35.6299 3.68066 35.6299 -14.1699v-128.93h-175.99z" />
    <glyph glyph-name="caret-right-primary" unicode="&#xf0da;" horiz-adv-x="192" 
d="M8 192v128.93c0 17.8506 22.4805 26.8008 35.6299 14.1699l134.271 -128.92c0.269531 -0.259766 0.540039 -0.529297 0.799805 -0.80957c3.28418 -3.47461 5.2998 -8.16113 5.2998 -13.3154v-0.0546875h-176z" />
    <glyph glyph-name="columns-primary" unicode="&#xf0db;" 
d="M464 416c26.4922 0 48 -21.5078 48 -48v-352c0 -26.4922 -21.5078 -48 -48 -48h-416c-26.4922 0 -48 21.5078 -48 48v352c0 26.4922 21.5078 48 48 48h416zM224 32v256h-160v-256h160zM448 32v256h-160v-256h160z" />
    <glyph glyph-name="undo-primary" unicode="&#xf0e2;" 
d="M11.6504 448h48c6.32324 -0.335938 11.3535 -5.57617 11.3535 -11.9824c0 -0.193359 0.00488281 -0.376953 -0.00390625 -0.567383l-7.41992 -147.21l147.54 7.05957h0.580078c6.62305 0 12 -5.37695 12 -12v-47.2998c0 -6.62305 -5.37695 -12 -12 -12h-200
c-6.62305 0 -12 5.37695 -12 12v200c0 6.60645 5.35059 11.9727 11.9502 12z" />
    <glyph glyph-name="gavel-primary" unicode="&#xf0e3;" 
d="M169 150.63l45.21 -45.2598c5.79102 -5.79199 9.375 -13.7998 9.375 -22.6299c0 -8.8291 -3.58398 -16.8281 -9.375 -22.6201l-114.52 -114.75c-5.77832 -5.78906 -13.7734 -9.37207 -22.5898 -9.37207s-16.8027 3.58301 -22.5811 9.37207l-45.1699 45.2598
c-5.79004 5.79199 -9.37402 13.7998 -9.37402 22.6299c0 8.8291 3.58398 16.8281 9.37402 22.6201l114.49 114.75c5.77637 5.78809 13.7695 9.37109 22.584 9.37109c8.81543 0 16.7998 -3.58301 22.5762 -9.37109zM176.49 259.95l-22.5498 22.6299
c-4.34473 4.34375 -7.03223 10.3506 -7.03223 16.9736c0 6.62207 2.6875 12.6221 7.03223 16.9658l124.18 124.48c4.33301 4.34277 10.3301 7.03125 16.9434 7.03125s12.6035 -2.68848 16.9365 -7.03125l22.6104 -22.6602
c4.34375 -4.34375 7.03223 -10.3506 7.03223 -16.9736c0 -6.62207 -2.68848 -12.6221 -7.03223 -16.9658l-124.25 -124.45c-4.33203 -4.34277 -10.3271 -7.03027 -16.9385 -7.03027s-12.6006 2.6875 -16.9316 7.03027zM504 248.64
c4.34375 -4.34375 7.03223 -10.3506 7.03223 -16.9727c0 -6.62305 -2.68848 -12.623 -7.03223 -16.9668l-124.22 -124.45c-4.33105 -4.34766 -10.3281 -7.04004 -16.9434 -7.04004s-12.6064 2.69238 -16.9365 7.04004l-22.5801 22.6201
c-4.34375 4.34375 -7.03223 10.3506 -7.03223 16.9736c0 6.62207 2.68848 12.6221 7.03223 16.9658l124.21 124.45c4.3291 4.34766 10.3242 7.03906 16.9375 7.03906s12.6035 -2.69141 16.9326 -7.03906z" />
    <glyph glyph-name="umbrella-primary" unicode="&#xf0e9;" horiz-adv-x="576" 
d="M557 155.8c-51.5 54.4004 -107.61 52.5 -158.61 -37c-5.2998 -9.5 -14.8994 -8.59961 -19.6992 0c-2.5 4.40039 -32.2002 73.2002 -90.7002 73.2002c-45.7998 0 -70.5 -37.7998 -90.7002 -73.2002c-4.7998 -8.59961 -14.4004 -9.5 -19.7002 0
c-50.8994 89.4004 -106.59 92 -158.59 37c-10.2002 -9.89941 -20.9004 1.2998 -18.7002 11.4004c29.1904 136.3 137.99 218.2 255.7 230.899v17.9004c0 17.6611 14.3389 32 32 32s32 -14.3389 32 -32v-17.9004c117.3 -12.6992 227.11 -94.5996 255.71 -230.899
c2.2002 -10.1006 -8.40039 -21.4004 -18.71 -11.4004z" />
    <glyph glyph-name="paste-primary" unicode="&#xf0ea;" horiz-adv-x="448" 
d="M296 416c13.2461 0 24 -10.7539 24 -24v-72h-136c-30.8916 -0.0332031 -55.9668 -25.1084 -56 -56v-232h-104c-13.2461 0 -24 10.7539 -24 24v336c0 13.2461 10.7539 24 24 24h80.6104c11.0479 19.1592 31.6621 32.0664 55.3486 32.0664
s44.3828 -12.9072 55.4307 -32.0664h80.6104zM160 360c13.2461 0 24 10.7539 24 24s-10.7539 24 -24 24s-24 -10.7539 -24 -24s10.7539 -24 24 -24z" />
    <glyph glyph-name="exchange-primary" unicode="&#xf0ec;" 
d="M0 280v16c0 13.2461 10.7539 24 24 24h382l-30.5 27.7305c-4.62207 4.375 -7.50684 10.5674 -7.50684 17.4287c0 6.62305 2.69238 12.627 7.03711 16.9707l10.8398 10.8701c4.34375 4.34375 10.3438 7.03223 16.9668 7.03223
c6.62207 0 12.6289 -2.68848 16.9727 -7.03223l82.8203 -82.3398c5.79395 -5.79297 9.37988 -13.7939 9.37988 -22.626s-3.58594 -16.8418 -9.37988 -22.6338l-82.8203 -82.4004c-4.34375 -4.34375 -10.3438 -7.03223 -16.9658 -7.03223
c-6.62305 0 -12.6299 2.68848 -16.9736 7.03223l-10.8701 10.8701c-4.34473 4.34375 -7.0332 10.3447 -7.0332 16.9678c0 6.86133 2.88086 13.0566 7.50293 17.4316l30.5303 27.7305h-382c-13.2461 0 -24 10.7539 -24 24z" />
    <glyph glyph-name="coffee-primary" unicode="&#xf0f4;" horiz-adv-x="640" 
d="M512.06 416c70.6455 0 128 -57.3545 128 -128s-57.3545 -128 -128 -128h-32c0 -52.9834 -43.0156 -96 -96 -96h-192c-52.9834 0 -96 43.0166 -96 96v232c0 0.0205078 -0.000976562 0.0400391 -0.000976562 0.0605469c0 13.2119 10.7275 23.9395 23.9404 23.9395
h0.0605469h392zM512.06 224c35.3232 0 64 28.6777 64 64s-28.6768 64 -64 64h-32v-128h32z" />
    <glyph glyph-name="hospital-primary" unicode="&#xf0f8;" horiz-adv-x="448" 
d="M180 160c6.62305 0 12 -5.37695 12 -12v-40c0 -6.62305 -5.37695 -12 -12 -12h-40c-6.62305 0 -12 5.37695 -12 12v40c0 6.62305 5.37695 12 12 12h40zM180 256c6.62305 0 12 -5.37695 12 -12v-40c0 -6.62305 -5.37695 -12 -12 -12h-40c-6.62305 0 -12 5.37695 -12 12v40
c0 6.62305 5.37695 12 12 12h40zM288 338.67c0 -4.41504 -3.58496 -8 -8 -8h-34.6699v-34.6699c0 -4.41504 -3.58496 -8 -8 -8h-26.6602c-4.41504 0 -8 3.58496 -8 8v34.6699h-34.6699c-4.41504 0 -8 3.58496 -8 8v26.6602c0 4.41504 3.58496 8 8 8h34.6699v34.6699
c0 4.41504 3.58496 8 8 8h26.6602c4.41504 0 8 -3.58496 8 -8v-34.6699h34.6699c4.41504 0 8 -3.58496 8 -8v-26.6602zM308 160c6.62305 0 12 -5.37695 12 -12v-40c0 -6.62305 -5.37695 -12 -12 -12h-40c-6.62305 0 -12 5.37695 -12 12v40c0 6.62305 5.37695 12 12 12h40z
M308 256c6.62305 0 12 -5.37695 12 -12v-40c0 -6.62305 -5.37695 -12 -12 -12h-40c-6.62305 0 -12 5.37695 -12 12v40c0 6.62305 5.37695 12 12 12h40z" />
    <glyph glyph-name="medkit-primary" unicode="&#xf0fa;" 
d="M336 416c26.4922 0 48 -21.5078 48 -48v-400h-256v400c0 26.4922 21.5078 48 48 48h160zM192 352v-32h128v32h-128zM352 128v32c0 8.83105 -7.16895 16 -16 16h-48v48c0 8.83105 -7.16895 16 -16 16h-32c-8.83105 0 -16 -7.16895 -16 -16v-48h-48
c-8.83105 0 -16 -7.16895 -16 -16v-32c0 -8.83105 7.16895 -16 16 -16h48v-48c0 -8.83105 7.16895 -16 16 -16h32c8.83105 0 16 7.16895 16 16v48h48c8.83105 0 16 7.16895 16 16zM0 272c0 26.4922 21.5078 48 48 48h16v-352h-16c-26.4922 0 -48 21.5078 -48 48v256z
M464 320c26.4922 0 48 -21.5078 48 -48v-256c0 -26.4922 -21.5078 -48 -48 -48h-16v352h16z" />
    <glyph glyph-name="fighter-jet-primary" unicode="&#xf0fb;" horiz-adv-x="640" 
d="M640 192c0 -5.41992 0 -10.6699 -96 -32l-128 -16l-48 -16h-261.33l-53.3398 -64h-34.6602l-10.6699 10.6699v69.3301h8v16h48v2.66992l-64 8v42.6602l64 8v2.66992h-48v16h-8v69.3301l10.6699 10.6699h34.6602l53.3398 -64h261.33l48 -16l128 -16
c96 -21.3301 96 -26.5801 96 -32z" />
    <glyph glyph-name="beer-primary" unicode="&#xf0fc;" horiz-adv-x="448" 
d="M208 320c8.83105 0 16 -7.16895 16 -16v-224c0 -8.83105 -7.16895 -16 -16 -16s-16 7.16895 -16 16v224c0 8.83105 7.16895 16 16 16zM112 320c8.83105 0 16 -7.16895 16 -16v-224c0 -8.83105 -7.16895 -16 -16 -16s-16 7.16895 -16 16v224c0 8.83105 7.16895 16 16 16z
" />
    <glyph glyph-name="h-square-primary" unicode="&#xf0fd;" horiz-adv-x="448" 
d="M352 80c0 -8.83105 -7.16895 -16 -16 -16h-32c-8.83105 0 -16 7.16895 -16 16v80h-128v-80c0 -8.83105 -7.16895 -16 -16 -16h-32c-8.83105 0 -16 7.16895 -16 16v224c0 8.83105 7.16895 16 16 16h32c8.83105 0 16 -7.16895 16 -16v-80h128v80
c0 8.83105 7.16895 16 16 16h32c8.83105 0 16 -7.16895 16 -16v-224z" />
    <glyph glyph-name="plus-square-primary" unicode="&#xf0fe;" horiz-adv-x="448" 
d="M80 220c0 6.62305 5.37695 12 12 12h92v92c0 6.62305 5.37695 12 12 12h56c6.62305 0 12 -5.37695 12 -12v-92h92c6.62305 0 12 -5.37695 12 -12v-56c0 -6.62305 -5.37695 -12 -12 -12h-92v-92c0 -6.62305 -5.37695 -12 -12 -12h-56c-6.62305 0 -12 5.37695 -12 12v92
h-92c-6.62305 0 -12 5.37695 -12 12v56z" />
    <glyph glyph-name="angle-double-left-primary" unicode="&#xf100;" horiz-adv-x="448" 
d="M32.1104 209l135.55 136c4.30957 4.35449 10.2881 7.05371 16.8926 7.05371c6.60352 0 12.5879 -2.69922 16.8975 -7.05371l22.5498 -22.7402c4.34375 -4.33496 7.03223 -10.3262 7.03223 -16.9414s-2.68848 -12.6133 -7.03223 -16.9482l-96.1104 -96.3701l96 -96.4697
c4.34375 -4.33496 7.03223 -10.3271 7.03223 -16.9424s-2.68848 -12.6133 -7.03223 -16.9482l-22.54 -22.6396c-4.30859 -4.35449 -10.2881 -7.05371 -16.8916 -7.05371c-6.60449 0 -12.5889 2.69922 -16.8984 7.05371l-135.56 136
c-4.3291 4.3418 -7.00684 10.332 -7.00684 16.9414c0 6.66602 2.72266 12.708 7.11719 17.0586z" />
    <glyph glyph-name="angle-double-right-primary" unicode="&#xf101;" horiz-adv-x="448" 
d="M415.89 175l-135.55 -136c-4.30957 -4.35449 -10.2881 -7.05371 -16.8926 -7.05371c-6.60352 0 -12.5879 2.69922 -16.8975 7.05371l-22.5498 22.7402c-4.34375 4.33496 -7.03223 10.3262 -7.03223 16.9414s2.68848 12.6133 7.03223 16.9482l96.1104 96.3701l-96 96.4697
c-4.34375 4.33496 -7.03223 10.3271 -7.03223 16.9424s2.68848 12.6133 7.03223 16.9482l22.5195 22.5898c4.30957 4.35449 10.2881 7.05371 16.8926 7.05371s12.5879 -2.69922 16.8975 -7.05371l135.58 -135.95c4.3291 -4.3418 7.00684 -10.332 7.00684 -16.9414
c0 -6.66602 -2.72266 -12.708 -7.11719 -17.0586z" />
    <glyph glyph-name="angle-double-up-primary" unicode="&#xf102;" horiz-adv-x="320" 
d="M177 383.89l136 -135.55c4.35449 -4.30957 7.05371 -10.2881 7.05371 -16.8926c0 -6.60352 -2.69922 -12.5879 -7.05371 -16.8975l-22.7402 -22.5498c-4.33496 -4.34375 -10.3262 -7.03223 -16.9414 -7.03223s-12.6133 2.68848 -16.9482 7.03223l-96.3701 96.1104
l-96.4697 -96c-4.33496 -4.34375 -10.3271 -7.03223 -16.9424 -7.03223s-12.6133 2.68848 -16.9482 7.03223l-22.5898 22.54c-4.35449 4.30859 -7.05371 10.2881 -7.05371 16.8916c0 6.60449 2.69922 12.5889 7.05371 16.8984l135.95 135.56
c4.3418 4.3291 10.332 7.00684 16.9414 7.00684c6.66602 0 12.708 -2.72266 17.0586 -7.11719z" />
    <glyph glyph-name="angle-double-down-primary" unicode="&#xf103;" horiz-adv-x="320" 
d="M143 0.110352l-135.95 135.55c-4.35449 4.30957 -7.05371 10.2881 -7.05371 16.8926c0 6.60352 2.69922 12.5879 7.05371 16.8975l22.6904 22.5498c4.33496 4.34375 10.3262 7.03223 16.9414 7.03223s12.6133 -2.68848 16.9482 -7.03223l96.3701 -96.1104l96.4697 96
c4.33496 4.34375 10.3271 7.03223 16.9424 7.03223s12.6133 -2.68848 16.9482 -7.03223l22.6396 -22.54c4.35449 -4.30859 7.05371 -10.2881 7.05371 -16.8916c0 -6.60449 -2.69922 -12.5889 -7.05371 -16.8984l-136 -135.56
c-4.3418 -4.3291 -10.332 -7.00684 -16.9414 -7.00684c-6.66602 0 -12.708 2.72266 -17.0586 7.11719z" />
    <glyph glyph-name="angle-up-primary" unicode="&#xf106;" horiz-adv-x="320" 
d="M313.13 152.19c4.26367 -4.29883 6.89941 -10.2217 6.89941 -16.748c0 -6.59277 -2.68945 -12.5635 -7.0293 -16.8721l-22.8203 -22.5703c-4.33301 -4.33105 -10.3232 -7.01172 -16.9277 -7.01172c-6.60547 0 -12.5889 2.68066 -16.9219 7.01172l-152.84 152.61
l39.5098 39.3896c4.3418 4.3291 10.3379 7.00781 16.9482 7.00781c6.66602 0 12.7012 -2.72363 17.0518 -7.11816l135.95 -135.529z" />
    <glyph glyph-name="angle-down-primary" unicode="&#xf107;" horiz-adv-x="320" 
d="M313 265.43c4.35547 -4.31055 7.05273 -10.2979 7.05273 -16.9033c0 -6.51465 -2.62402 -12.4199 -6.87305 -16.7168l-0.179688 -0.169922l-136.01 -135.54c-4.35059 -4.3877 -10.3877 -7.10645 -17.0488 -7.10645c-6.58008 0 -12.5439 2.65332 -16.8818 6.94727
l-0.0595703 0.0595703l-39.5303 39.3896l152.891 152.61c4.33301 4.33105 10.3232 7.01172 16.9277 7.01172c6.60547 0 12.5889 -2.68066 16.9219 -7.01172z" />
    <glyph glyph-name="desktop-primary" unicode="&#xf108;" horiz-adv-x="576" 
d="M424 -16c13.2461 0 24 -10.7539 24 -24s-10.7539 -24 -24 -24h-272c-13.2461 0 -24 10.7539 -24 24s10.7539 24 24 24h72l16 48h96l16 -48h72zM64 384h448v-288h-448v288z" />
    <glyph glyph-name="tablet-primary" unicode="&#xf10a;" horiz-adv-x="448" 
d="M0 64v336c0 26.4922 21.5078 48 48 48h352c26.4922 0 48 -21.5078 48 -48v-336h-448z" />
    <glyph glyph-name="mobile-primary" unicode="&#xf10b;" horiz-adv-x="320" 
d="M0 64v336c0 26.4922 21.5078 48 48 48h224c26.4922 0 48 -21.5078 48 -48v-336h-320z" />
    <glyph glyph-name="keyboard-primary" unicode="&#xf11c;" horiz-adv-x="576" 
d="M164 224c6.62305 0 12 -5.37695 12 -12v-40c0 -6.62305 -5.37695 -12 -12 -12h-40c-6.62305 0 -12 5.37695 -12 12v40c0 6.62305 5.37695 12 12 12h40zM260 224c6.62305 0 12 -5.37695 12 -12v-40c0 -6.62305 -5.37695 -12 -12 -12h-40c-6.62305 0 -12 5.37695 -12 12v40
c0 6.62305 5.37695 12 12 12h40zM356 224c6.62305 0 12 -5.37695 12 -12v-40c0 -6.62305 -5.37695 -12 -12 -12h-40c-6.62305 0 -12 5.37695 -12 12v40c0 6.62305 5.37695 12 12 12h40zM464 172c0 -6.62305 -5.37695 -12 -12 -12h-40c-6.62305 0 -12 5.37695 -12 12v40
c0 6.62305 5.37695 12 12 12h40c6.62305 0 12 -5.37695 12 -12v-40zM500 128c6.62305 0 12 -5.37695 12 -12v-40c0 -6.62305 -5.37695 -12 -12 -12h-40c-6.62305 0 -12 5.37695 -12 12v40c0 6.62305 5.37695 12 12 12h40zM500 320c6.62305 0 12 -5.37695 12 -12v-40
c0 -6.62305 -5.37695 -12 -12 -12h-40c-6.62305 0 -12 5.37695 -12 12v40c0 6.62305 5.37695 12 12 12h40zM364 256c-6.62305 0 -12 5.37695 -12 12v40c0 6.62305 5.37695 12 12 12h40c6.62305 0 12 -5.37695 12 -12v-40c0 -6.62305 -5.37695 -12 -12 -12h-40zM268 256
c-6.62305 0 -12 5.37695 -12 12v40c0 6.62305 5.37695 12 12 12h40c6.62305 0 12 -5.37695 12 -12v-40c0 -6.62305 -5.37695 -12 -12 -12h-40zM172 256c-6.62305 0 -12 5.37695 -12 12v40c0 6.62305 5.37695 12 12 12h40c6.62305 0 12 -5.37695 12 -12v-40
c0 -6.62305 -5.37695 -12 -12 -12h-40zM76 256c-6.62305 0 -12 5.37695 -12 12v40c0 6.62305 5.37695 12 12 12h40c6.62305 0 12 -5.37695 12 -12v-40c0 -6.62305 -5.37695 -12 -12 -12h-40zM116 128c6.62305 0 12 -5.37695 12 -12v-40c0 -6.62305 -5.37695 -12 -12 -12h-40
c-6.62305 0 -12 5.37695 -12 12v40c0 6.62305 5.37695 12 12 12h40z" />
    <glyph glyph-name="terminal-primary" unicode="&#xf120;" horiz-adv-x="640" 
d="M29.7002 -16.6602l-22.7002 22.6602c-4.33203 4.34277 -7.01172 10.334 -7.01172 16.9463s2.67969 12.6113 7.01172 16.9541l154 154.76l-154 154.74c-4.33203 4.3418 -7.01172 10.334 -7.01172 16.9463s2.67969 12.6104 7.01172 16.9531l22.7002 22.7002
c4.34375 4.34375 10.3438 7.03223 16.9668 7.03223c6.62207 0 12.6289 -2.68848 16.9727 -7.03223l194.36 -194.37c4.34375 -4.34375 7.03223 -10.3438 7.03223 -16.9668c0 -6.62207 -2.68848 -12.6289 -7.03223 -16.9727l-194.36 -194.351
c-4.34375 -4.34375 -10.3438 -7.03223 -16.9668 -7.03223c-6.62207 0 -12.6289 2.68848 -16.9727 7.03223z" />
    <glyph glyph-name="code-primary" unicode="&#xf121;" horiz-adv-x="640" 
d="M636.23 200.74c2.35547 -2.18164 3.83105 -5.29883 3.83105 -8.75977c0 -3.4707 -1.4834 -6.59766 -3.85156 -8.78027l-144.11 -135.101c-2.14551 -2.00879 -5.03223 -3.24414 -8.2002 -3.24414c-3.47559 0 -6.60742 1.48047 -8.7998 3.84473l-43.5 46.3994
c-2.03223 2.13867 -3.28613 5.03027 -3.28613 8.20996c0 3.58594 1.58691 6.80469 4.09668 8.99023l90.5898 79.7002l-90.5703 79.7998c-2.48926 2.19922 -4.05469 5.41699 -4.05469 8.99707c0 3.1709 1.2334 6.05664 3.24512 8.20312l43.5 46.4404
c2.20508 2.30664 5.31738 3.74023 8.75781 3.74023c3.18262 0 6.08008 -1.22949 8.24219 -3.24023zM208.43 288.94c2.04004 -2.13965 3.29883 -5.03613 3.29883 -8.22266c0 -3.60059 -1.60059 -6.83105 -4.12891 -9.01758l-90.5996 -79.7002l90.6201 -79.6602
c2.48926 -2.19922 4.05469 -5.41699 4.05469 -8.99707c0 -3.1709 -1.23242 -6.05664 -3.24512 -8.20312l-43.5 -46.3994c-2.17773 -2.35156 -5.29297 -3.82129 -8.74805 -3.82129c-3.20117 0 -6.10938 1.26465 -8.25195 3.32129l-144.109 135.1
c-2.34961 2.18164 -3.82031 5.29395 -3.82031 8.75c0 3.45508 1.4707 6.56934 3.82031 8.75l144.109 135c2.15137 2.03711 5.05762 3.29102 8.25098 3.29102c3.44922 0 6.55957 -1.45801 8.74902 -3.79102z" />
    <glyph glyph-name="reply-all-primary" unicode="&#xf122;" horiz-adv-x="576" 
d="M576 126.67c0 -61.4395 -39.5801 -122.3 -83.3301 -154.13c-13.6602 -9.92969 -33.1104 2.54004 -28.0801 18.6299c38.5098 123.17 -3.91992 169.49 -112.59 182v-84.1699c0 -20.7002 -24.2998 -31.4502 -39.6904 -18.1602l-176 152
c-5.09473 4.40234 -8.32129 10.9102 -8.32129 18.165c0 7.25586 3.22656 13.7529 8.32129 18.1553l176 152c15.4102 13.29 39.6904 2.49023 39.6904 -18.1602v-82.7695c129.18 -10.2305 224 -52.2305 224 -183.561z" />
    <glyph glyph-name="location-arrow-primary" unicode="&#xf124;" 
d="M399.67 335.68l-95.8398 -207.68v111.83h-111.83z" />
    <glyph glyph-name="code-branch-primary" unicode="&#xf126;" horiz-adv-x="384" 
d="M80 448c44.1533 0 80 -35.8467 80 -80s-35.8467 -80 -80 -80s-80 35.8467 -80 80s35.8467 80 80 80zM80 352c8.83105 0 16 7.16895 16 16s-7.16895 16 -16 16s-16 -7.16895 -16 -16s7.16895 -16 16 -16zM80 96c44.1533 0 80 -35.8467 80 -80s-35.8467 -80 -80 -80
s-80 35.8467 -80 80s35.8467 80 80 80zM80 0c8.83105 0 16 7.16895 16 16s-7.16895 16 -16 16s-16 -7.16895 -16 -16s7.16895 -16 16 -16zM304 384c44.1533 0 80 -35.8467 80 -80s-35.8467 -80 -80 -80s-80 35.8467 -80 80s35.8467 80 80 80zM304 288
c8.83105 0 16 7.16895 16 16s-7.16895 16 -16 16s-16 -7.16895 -16 -16s7.16895 -16 16 -16z" />
    <glyph glyph-name="unlink-primary" unicode="&#xf127;" 
d="M63.5996 441l441.4 -441.4c4.34375 -4.34375 7.03223 -10.3438 7.03223 -16.9658c0 -6.62305 -2.68848 -12.6299 -7.03223 -16.9736l-22.6602 -22.6602c-4.34375 -4.34375 -10.3438 -7.03223 -16.9668 -7.03223c-6.62207 0 -12.6289 2.68848 -16.9727 7.03223
l-441.4 441.4c-4.34375 4.34375 -7.03223 10.3438 -7.03223 16.9658c0 6.62305 2.68848 12.6299 7.03223 16.9736l22.6602 22.6602c4.34375 4.34375 10.3438 7.03223 16.9668 7.03223c6.62207 0 12.6289 -2.68848 16.9727 -7.03223z" />
    <glyph glyph-name="question-primary" unicode="&#xf128;" horiz-adv-x="384" 
d="M367.9 294.4c0 -116 -125.301 -117.801 -125.301 -160.601v-5.7998c0 -13.2998 -10.6992 -24 -24 -24h-72.5c-13.2998 0 -24 10.7002 -24 24v9.7998c0 61.7998 46.9004 86.5 82.3008 106.4c30.3994 17 49 28.5996 49 51.2002c0 29.7998 -38 49.5996 -68.8008 49.5996
c-39.0996 0 -57.7998 -18.0996 -82.7998 -49.4004c-8.09961 -10.1992 -22.8994 -12 -33.2998 -4.09961l-43.0996 32.7002c-10.3008 7.7998 -12.6006 22.2998 -5.2002 32.8994c40.7002 58.2002 92.3994 90.9004 172.2 90.9004c84.8994 0 175.5 -66.2998 175.5 -153.6z" />
    <glyph glyph-name="puzzle-piece-primary" unicode="&#xf12e;" horiz-adv-x="576" 
 />
    <glyph glyph-name="fire-extinguisher-primary" unicode="&#xf134;" horiz-adv-x="448" 
d="M434 421.67c0.654297 0.110352 1.31445 0.167969 2 0.167969c6.62305 0 12 -5.37695 12 -12v-0.0078125v-115.66c0 -0.00292969 0.0107422 -0.00488281 0.0107422 -0.0078125c0 -6.62305 -5.37695 -12 -12 -12c-0.68457 0 -1.35645 0.0576172 -2.01074 0.167969l-168 28
c-7.75977 1.2998 -9.62012 7.33984 -10 12.1299v58.4502c0.230469 5.03027 1.84961 11.3994 10 12.7598zM192 305c52.9834 0 96 -43.0166 96 -96v-241c0 -17.6611 -14.3389 -32 -32 -32h-128c-17.6611 0 -32 14.3389 -32 32v241c0 52.9834 43.0166 96 96 96z" />
    <glyph glyph-name="chevron-circle-left-primary" unicode="&#xf137;" 
d="M142.1 209l135.5 135.5c4.33008 4.35547 10.3262 7.05371 16.9473 7.05371s12.623 -2.69824 16.9531 -7.05371l17 -17c4.35547 -4.33008 7.05371 -10.3262 7.05371 -16.9473s-2.69824 -12.623 -7.05371 -16.9531l-101.6 -101.6l101.6 -101.6
c4.35547 -4.33008 7.05371 -10.3262 7.05371 -16.9473s-2.69824 -12.623 -7.05371 -16.9531l-17 -17c-4.33008 -4.35547 -10.3262 -7.05371 -16.9473 -7.05371s-12.623 2.69824 -16.9531 7.05371l-135.5 135.5c-4.36133 4.34668 -7.0625 10.3584 -7.0625 16.9971
c0 6.6377 2.70117 12.6562 7.0625 17.0029z" />
    <glyph glyph-name="chevron-circle-right-primary" unicode="&#xf138;" 
d="M369.9 175l-135.5 -135.5c-4.33008 -4.35547 -10.3262 -7.05371 -16.9473 -7.05371s-12.623 2.69824 -16.9531 7.05371l-17 17c-4.35547 4.33008 -7.05371 10.3262 -7.05371 16.9473s2.69824 12.623 7.05371 16.9531l101.6 101.6l-101.6 101.6
c-4.35547 4.33008 -7.05371 10.3262 -7.05371 16.9473s2.69824 12.623 7.05371 16.9531l17 17c4.33008 4.35547 10.3262 7.05371 16.9473 7.05371s12.623 -2.69824 16.9531 -7.05371l135.5 -135.5c4.36133 -4.34668 7.0625 -10.3584 7.0625 -16.9971
c0 -6.6377 -2.70117 -12.6562 -7.0625 -17.0029z" />
    <glyph glyph-name="chevron-circle-up-primary" unicode="&#xf139;" 
d="M273 305.9l135.5 -135.5c4.35547 -4.33008 7.05371 -10.3262 7.05371 -16.9473s-2.69824 -12.623 -7.05371 -16.9531l-17 -17c-4.33008 -4.35547 -10.3262 -7.05371 -16.9473 -7.05371s-12.623 2.69824 -16.9531 7.05371l-101.6 101.6l-101.6 -101.6
c-4.33008 -4.35547 -10.3262 -7.05371 -16.9473 -7.05371s-12.623 2.69824 -16.9531 7.05371l-17 17c-4.35547 4.33008 -7.05371 10.3262 -7.05371 16.9473s2.69824 12.623 7.05371 16.9531l135.5 135.5c4.34668 4.36133 10.3584 7.0625 16.9971 7.0625
c6.6377 0 12.6562 -2.70117 17.0029 -7.0625z" />
    <glyph glyph-name="chevron-circle-down-primary" unicode="&#xf13a;" 
d="M239 78.0996l-135.5 135.5c-4.35547 4.33008 -7.05371 10.3262 -7.05371 16.9473s2.69824 12.623 7.05371 16.9531l17 17c4.33008 4.35547 10.3262 7.05371 16.9473 7.05371s12.623 -2.69824 16.9531 -7.05371l101.6 -101.6l101.6 101.6
c4.33008 4.35547 10.3262 7.05371 16.9473 7.05371s12.623 -2.69824 16.9531 -7.05371l17 -17c4.35547 -4.33008 7.05371 -10.3262 7.05371 -16.9473s-2.69824 -12.623 -7.05371 -16.9531l-135.5 -135.5c-4.34668 -4.36133 -10.3584 -7.0625 -16.9971 -7.0625
c-6.6377 0 -12.6562 2.70117 -17.0029 7.0625z" />
    <glyph glyph-name="unlock-alt-primary" unicode="&#xf13e;" horiz-adv-x="448" 
d="M400 192c26.4922 0 48 -21.5078 48 -48v-160c0 -26.4922 -21.5078 -48 -48 -48h-352c-26.4922 0 -48 21.5078 -48 48v160c0 26.4922 21.5078 48 48 48h352zM264 40v48c0 22.0762 -17.9238 40 -40 40s-40 -17.9238 -40 -40v-48c0 -22.0762 17.9238 -40 40 -40
s40 17.9238 40 40z" />
    <glyph glyph-name="ellipsis-h-primary" unicode="&#xf141;" 
d="M432 264c39.7383 0 72 -32.2617 72 -72s-32.2617 -72 -72 -72s-72 32.2617 -72 72s32.2617 72 72 72zM80 264c39.7383 0 72 -32.2617 72 -72s-32.2617 -72 -72 -72s-72 32.2617 -72 72s32.2617 72 72 72z" />
    <glyph glyph-name="ellipsis-v-primary" unicode="&#xf142;" horiz-adv-x="192" 
d="M96 296c-39.7383 0 -72 32.2617 -72 72s32.2617 72 72 72s72 -32.2617 72 -72s-32.2617 -72 -72 -72zM96 88c39.7383 0 72 -32.2617 72 -72s-32.2617 -72 -72 -72s-72 32.2617 -72 72s32.2617 72 72 72z" />
    <glyph glyph-name="rss-square-primary" unicode="&#xf143;" horiz-adv-x="448" 
d="M112 128c26.4922 0 48 -21.5078 48 -48s-21.5078 -48 -48 -48s-48 21.5078 -48 48s21.5078 48 48 48zM75.79 352c167.83 -6 302.21 -141.2 308.21 -308.21c0.00390625 -0.125 0.00683594 -0.244141 0.00683594 -0.370117c0 -6.30273 -5.11719 -11.4199 -11.4199 -11.4199
h-0.0273438h-34.3291c-6.16211 0.00585938 -11.1904 4.89551 -11.4307 11c-5.59961 136.57 -115.21 246.2 -251.8 251.8c-6.10449 0.240234 -10.9941 5.26855 -11 11.4307v34.3291c0 0.00878906 -0.00585938 0.0175781 -0.00585938 0.0263672
c0 6.30273 5.11719 11.4199 11.4199 11.4199c0.125977 0 0.250977 -0.00195312 0.375977 -0.00585938zM76 249c110.54 -6 199 -94.5801 205 -205c0.00976562 -0.195312 0.015625 -0.382812 0.015625 -0.580078c0 -6.30273 -5.11719 -11.4199 -11.4199 -11.4199h-0.0654297
h-34.3301c-0.00976562 0 -0.0195312 0.00976562 -0.0292969 0.00976562c-6.03809 0 -10.9902 4.68848 -11.4111 10.6201c-5.29102 79.8057 -69.3242 143.839 -149.13 149.13c-5.93164 0.420898 -10.6299 5.37305 -10.6299 11.4111v0.0292969v34.3701
c0 0.0078125 -0.00878906 0.0166016 -0.00878906 0.0244141c0 6.30273 5.11719 11.4199 11.4199 11.4199c0.198242 0 0.393555 -0.00488281 0.588867 -0.0146484z" />
    <glyph glyph-name="minus-square-primary" unicode="&#xf146;" horiz-adv-x="448" 
d="M368 220v-56c0 -6.62305 -5.37695 -12 -12 -12h-264c-6.62305 0 -12 5.37695 -12 12v56c0 6.62305 5.37695 12 12 12h264c6.62305 0 12 -5.37695 12 -12z" />
    <glyph glyph-name="check-square-primary" unicode="&#xf14a;" horiz-adv-x="448" 
d="M195.31 66.0596c-2.89551 -2.89355 -6.89355 -4.68457 -11.3076 -4.68457c-4.41309 0 -8.41602 1.79102 -11.3115 4.68457l-104 104c-2.89746 2.89648 -4.69043 6.89746 -4.69043 11.3135s1.79297 8.4209 4.69043 11.3174l22.6191 22.6191
c2.89648 2.89746 6.89746 4.69043 11.3135 4.69043s8.4209 -1.79297 11.3174 -4.69043l70.0596 -70.0498l150.06 150c2.89648 2.89746 6.89746 4.69043 11.3135 4.69043s8.4209 -1.79297 11.3174 -4.69043l22.6191 -22.6201
c2.89746 -2.89551 4.69043 -6.89648 4.69043 -11.3125s-1.79297 -8.4209 -4.69043 -11.3174l-184 -184v0.0498047z" />
    <glyph glyph-name="pen-square-primary" unicode="&#xf14b;" horiz-adv-x="448" 
d="M345 282.9c4.31348 -4.35254 6.97852 -10.3486 6.97852 -16.9541s-2.66504 -12.5938 -6.97852 -16.9463l-23.0996 -23.0996c-1.09961 -1.06738 -2.60059 -1.72461 -4.25195 -1.72461s-3.14941 0.657227 -4.24805 1.72461l-55.5 55.5
c-1.06738 1.09863 -1.72461 2.59961 -1.72461 4.25098s0.657227 3.14941 1.72461 4.24902l23.0996 23.0996c4.33008 4.35547 10.332 7.05371 16.9531 7.05371s12.6172 -2.69824 16.9473 -7.05371zM246.7 270l55.5 -55.5c1.06738 -1.09863 1.72461 -2.60059 1.72461 -4.25098
c0 -1.65137 -0.657227 -3.15039 -1.72461 -4.24902l-135.7 -135.7l-57.0996 -6.2998c-0.416992 -0.0429688 -0.828125 -0.0771484 -1.25586 -0.0771484c-6.68359 0 -12.1104 5.42578 -12.1104 12.1094c0 0.427734 0.0224609 0.851562 0.0654297 1.26758l6.30078 57.1006
l135.699 135.699c1.10254 1.06055 2.60156 1.71289 4.25 1.71289c1.7002 0 3.23926 -0.693359 4.35059 -1.8125z" />
    <glyph glyph-name="external-link-square-primary" unicode="&#xf14c;" horiz-adv-x="448" 
d="M69.9102 86.0898l207.399 205.91l-56 -1.58984c-0.222656 -0.00683594 -0.446289 -0.00976562 -0.670898 -0.00976562c-12.8779 0 -23.3232 10.4531 -23.3291 23.3301v14.9395c0.00585938 12.877 10.4619 23.3301 23.3408 23.3301h0.0195312h132.22
c17.1709 0 31.1104 -13.9395 31.1104 -31.1104v-132.22c0 -12.8779 -10.4531 -23.334 -23.3301 -23.3398h-14.9102c-12.877 0.00585938 -23.3291 10.4619 -23.3291 23.3398c0 0.224609 0.00292969 0.4375 0.00976562 0.660156l1.58984 56l-205.94 -207.42
c-3.62402 -3.64844 -8.64355 -5.90918 -14.1875 -5.90918c-5.51758 0 -10.5225 2.24023 -14.1426 5.85938l-19.8994 19.8994c-3.61914 3.62012 -5.85938 8.61914 -5.85938 14.1377c0 5.54395 2.26074 10.5684 5.90918 14.1924z" />
    <glyph glyph-name="share-square-primary" unicode="&#xf14d;" horiz-adv-x="576" 
d="M424.48 441.44l144 -136c4.63477 -4.37695 7.5293 -10.5791 7.5293 -17.4502c0 -6.87207 -2.89453 -13.0732 -7.5293 -17.4502l-144 -136c-15.1807 -14.3096 -40.4805 -3.67969 -40.4805 17.46v72c-144.58 -1 -205.57 -35.1201 -164.78 -171.36
c4.49023 -15 -12.8398 -26.5596 -25 -17.3301c-39 29.6006 -74.2197 86.2207 -74.2197 143.37c0 143.92 117.6 172.48 264 173.32v72c0 21.1602 25.3203 31.7598 40.4805 17.4404z" />
    <glyph glyph-name="caret-square-down-primary" unicode="&#xf150;" horiz-adv-x="448" 
d="M348.63 233.69l-116.57 -133.851c-1.90332 -2.3457 -4.80957 -3.8457 -8.06348 -3.8457s-6.15234 1.5 -8.05566 3.8457l-116.57 133.851c-7.2002 8.30957 -2.08984 22.3096 8.05957 22.3096h233.141c10.1494 0 15.2598 -14 8.05957 -22.3096z" />
    <glyph glyph-name="caret-square-up-primary" unicode="&#xf151;" horiz-adv-x="448" 
d="M340.6 128h-233.199c-10.1406 0 -15.21 14.0703 -8.05078 22.29l116.65 133.89c1.9043 2.33203 4.80078 3.82227 8.04395 3.82227c3.24219 0 6.13184 -1.49023 8.03613 -3.82227l116.57 -133.89c7.15918 -8.21973 2.08984 -22.29 -8.05078 -22.29z" />
    <glyph glyph-name="caret-square-right-primary" unicode="&#xf152;" horiz-adv-x="448" 
d="M316.18 184l-133.89 -116.65c-8.21973 -7.15918 -22.29 -2.08984 -22.29 8v233.25c0 10.1406 14.0703 15.21 22.29 8.05078l133.89 -116.65c2.30371 -1.9043 3.77246 -4.78418 3.77246 -8.00293c0 -3.21973 -1.46875 -6.09277 -3.77246 -7.99707z" />
    <glyph glyph-name="euro-sign-primary" unicode="&#xf153;" horiz-adv-x="320" 
d="M310.74 -24.2197c-19.5742 -5.01172 -39.9883 -7.72656 -61.1006 -7.79004c-287.909 0 -290.739 448 0 448c18.0645 -0.130859 35.541 -1.91504 52.6807 -5.20996c5.53711 -1.06445 9.72656 -5.93945 9.72656 -11.7852
c0 -0.759766 -0.0615234 -1.49414 -0.197266 -2.21484c-0.0595703 -0.290039 -0.119141 -0.580078 -0.199219 -0.870117l-12 -44.3701c-1.38086 -5.10352 -6.04785 -8.8623 -11.585 -8.8623c-0.831055 0 -1.63184 0.0810547 -2.41504 0.242188
c-234.25 48.79 -225.48 -354 10.6299 -299.3c0.860352 0.196289 1.75488 0.299805 2.6748 0.299805c5.69238 0 10.4561 -3.97852 11.6846 -9.2998c0 -0.110352 0.0507812 -0.219727 0.0703125 -0.330078l8.80957 -44.4902
c0.15918 -0.776367 0.242188 -1.58105 0.242188 -2.4043c0 -5.59375 -3.83984 -10.2881 -9.02148 -11.6152z" />
    <glyph glyph-name="pound-sign-primary" unicode="&#xf154;" horiz-adv-x="320" 
d="M48 32v258c0 73.2598 58 126 139.93 126c48.6504 0 85.1904 -22.5596 101.58 -34.9297c2.88965 -2.19238 4.75781 -5.66309 4.75781 -9.56641c0 -2.71777 -0.921875 -5.23145 -2.44727 -7.24414c-0.0615234 -0.0908203 -0.12793 -0.176758 -0.200195 -0.259766
l-28.4902 -35.5098c-2.2002 -2.74414 -5.58008 -4.50293 -9.36719 -4.50293c-2.31543 0 -4.48828 0.673828 -6.32227 1.8125c-11.7705 7.35059 -34 18.8506 -57.6504 18.8506c-37.2305 0 -61.79 -24.8203 -61.79 -57.0801v-254.42h122.51v50.8496
c0 6.62305 5.37695 12 12 12h45.4902c6.62305 0 12 -5.37695 12 -12v-104c0 -6.62305 -5.37695 -12 -12 -12h-296c-6.62305 0 -12 5.37695 -12 12v40c0 6.62305 5.37695 12 12 12h36z" />
    <glyph glyph-name="rupee-sign-primary" unicode="&#xf156;" horiz-adv-x="320" 
d="M320 404v-40c0 -6.62305 -5.37695 -12 -12 -12h-76.2598c15.2695 -22.8574 24.1758 -50.3203 24.1758 -79.8467c0 -77.8203 -61.8564 -141.452 -139.046 -144.063l150.88 -139.27c2.37695 -2.19336 3.86719 -5.33496 3.86719 -8.82129c0 -6.62305 -5.37695 -12 -12 -12
l-0.00683594 0.000976562h-82.5605h-0.00292969c-3.13672 0 -5.99805 1.20703 -8.13672 3.17969l-165.05 152.36c-2.37598 2.19336 -3.86426 5.33301 -3.86426 8.81738l0.00390625 0.00292969v48c0.00585938 5.62598 3.89746 10.3506 9.12988 11.6396h86.8701h0.103516
c11.082 0 21.6943 2.30469 31.2861 6.40039c2.11914 0.894531 4.20703 1.9043 6.20996 3c25.2705 13.4521 42.4893 40.0635 42.4893 70.666c0 32.5068 -19.4482 60.4219 -47.3193 72.9336c-9.43652 4.63574 -20.0479 7.23926 -31.2637 7.23926
c-0.0644531 0 -0.191406 0.0410156 -0.255859 0.0410156h-85.25c-6.62305 0 -12 5.37695 -12 12v39.7197c0 6.62305 5.37695 12 12 12h296c6.62305 0 12 -5.37695 12 -12z" />
    <glyph glyph-name="yen-sign-primary" unicode="&#xf157;" horiz-adv-x="384" 
d="M362 398.4l-129.82 -243.601v-174.8c0 -6.62305 -5.37695 -12 -12 -12h-56c-6.62305 0 -12 5.37695 -12 12v174.8l-129.79 243.601c-0.880859 1.66895 -1.37891 3.57031 -1.37891 5.58691c0 6.62207 5.36816 12.0107 11.9893 12.0127h65.2002h0.0341797
c4.72559 0 8.80957 -2.72559 10.7656 -6.7002l55.4004 -113.2c14.5 -34.6992 27.0996 -71.8994 27.0996 -71.8994h1.2998s12.6006 37.2002 27.1006 71.8994l55.3994 113.2c1.95703 3.97461 6.04785 6.71191 10.7734 6.71191
c0.0117188 0 0.015625 -0.0117188 0.0263672 -0.0117188h65.3008c6.61621 -0.00683594 11.9863 -5.38184 11.9863 -12c0 -2.0166 -0.505859 -3.93066 -1.38672 -5.59961z" />
    <glyph glyph-name="ruble-sign-primary" unicode="&#xf158;" horiz-adv-x="384" 
d="M239.36 416c85.1201 0 144.64 -57.5996 144.64 -143.07c0 -85.4697 -59.5195 -144.93 -144.64 -144.93h-92.8008v-148c0 -6.62305 -5.37695 -12 -12 -12h-58.5596c-6.62305 0 -12 5.37695 -12 12v148h-52c-6.62305 0 -12 5.37695 -12 12v45.3701
c0 6.62305 5.37695 12 12 12h52v206.63c0 6.62305 5.37695 12 12 12h163.36zM224 197.37c48 0 76.1602 29.7295 76.1602 75.5596c0 45.21 -28.1602 74.3203 -74.8799 74.3203h-78.7207v-149.88h77.4404z" />
    <glyph glyph-name="won-sign-primary" unicode="&#xf159;" horiz-adv-x="576" 
d="M534 404c-0.00195312 -0.891602 -0.101562 -1.75391 -0.290039 -2.58984l-18.1201 -80.8301l-14.3203 -64.0996l-7.20996 -32l-14.4199 -64.1006l-41 -182.88c-1.14746 -5.38965 -5.91992 -9.4541 -11.6396 -9.5h-56.9199
c-5.69043 0.0292969 -10.458 3.99707 -11.7197 9.30957l-42.3604 182.99l-16.9199 72.7002c-1.90039 8 -3.5 16 -4.81055 23.4404h-12.5391c-1.31055 -7.44043 -2.91016 -15.4404 -4.81055 -23.4404l-16.9199 -72.7002l-42.3604 -183
c-1.26562 -5.30859 -6.03223 -9.27148 -11.7197 -9.2998h-56.9199c-5.73438 0 -10.5352 4.03906 -11.7197 9.41992l-41 182.88l-14.3398 64.1006l-7.20996 32l-14.3203 64.0996l-18.1201 80.8799c-0.189453 0.842773 -0.290039 1.71875 -0.290039 2.61719v0.00292969
c0 6.62305 5.37695 12 12 12h42.1602h0.0800781c5.80469 0 10.6514 -4.13965 11.7598 -9.62012l61.1904 -300.16c3.09277 -15.4521 5.39062 -31.2891 6.80957 -47.2793h1.09961c0.5 0 1.10059 21.4395 7.31055 47.2793l70 300.471
c1.22461 5.32422 5.99609 9.30762 11.6895 9.30957h43.8008h0.015625c5.69531 0 10.4688 -3.9834 11.6943 -9.30957l70 -300.471c6.20996 -25.8398 6.80957 -47.2793 7.30957 -47.2793h1.08008c1.41895 15.9902 3.7168 31.8271 6.80957 47.2793l61.1904 300.16
c1.1084 5.48047 5.95703 9.61133 11.7617 9.61133c0.0263672 0 0.0517578 0.00878906 0.078125 0.00878906h42.1602c6.62305 0 12 -5.37695 12 -12z" />
    <glyph glyph-name="long-arrow-down-primary" unicode="&#xf175;" horiz-adv-x="320" 
d="M313 110.54l-135.52 -135.54l-0.0605469 -0.0595703c-4.5293 -4.32324 -10.6641 -6.97949 -17.4131 -6.97949c-6.75 0 -12.8975 2.65625 -17.4268 6.97949l-0.0605469 0.0595703l-135.52 135.54c-4.34375 4.34375 -7.03223 10.3438 -7.03223 16.9668
c0 6.62207 2.68848 12.6289 7.03223 16.9736l17 17c4.34375 4.34375 10.3438 7.03125 16.9668 7.03125s12.6289 -2.6875 16.9736 -7.03125l102.06 -101.08l102 101.08c4.34375 4.34375 10.3438 7.03125 16.9668 7.03125s12.6289 -2.6875 16.9736 -7.03125l17 -17
c4.36133 -4.34668 7.0625 -10.3594 7.0625 -16.9971c0 -6.60742 -2.67676 -12.6016 -7.00293 -16.9434z" />
    <glyph glyph-name="long-arrow-up-primary" unicode="&#xf176;" horiz-adv-x="320" 
d="M7 273.42l135.52 135.58l0.0605469 0.0595703c4.5293 4.32324 10.6641 6.97949 17.4131 6.97949c6.75 0 12.8975 -2.65625 17.4268 -6.97949l0.0605469 -0.0595703l135.52 -135.58c4.34375 -4.34375 7.03223 -10.3438 7.03223 -16.9668
c0 -6.62207 -2.68848 -12.6289 -7.03223 -16.9727l-17 -17c-4.34375 -4.34473 -10.3438 -7.03223 -16.9668 -7.03223s-12.6289 2.6875 -16.9736 7.03223l-102.06 101.069l-102 -101.069c-4.34375 -4.34473 -10.3438 -7.03223 -16.9668 -7.03223
s-12.6289 2.6875 -16.9736 7.03223l-17 17c-4.36133 4.3457 -7.0625 10.3584 -7.0625 16.9961c0 6.60742 2.67676 12.6016 7.00293 16.9434z" />
    <glyph glyph-name="long-arrow-left-primary" unicode="&#xf177;" horiz-adv-x="448" 
d="M142.56 39l-135.56 135.5v0.0595703c-4.32324 4.53027 -6.97949 10.6641 -6.97949 17.4141c0 6.74902 2.65625 12.8965 6.97949 17.4268l0.0595703 0.0595703l135.5 135.49c4.34473 4.34375 10.3447 7.03223 16.9668 7.03223
c6.62305 0 12.6299 -2.68848 16.9736 -7.03223l17 -17c4.34375 -4.34473 7.03223 -10.3438 7.03223 -16.9668s-2.68848 -12.6289 -7.03223 -16.9736l-101.07 -102.01l101.07 -102c4.34375 -4.34375 7.03223 -10.3438 7.03223 -16.9668s-2.68848 -12.6289 -7.03223 -16.9736
l-17 -17c-4.34668 -4.36133 -10.3584 -7.0625 -16.9971 -7.0625c-6.60742 0 -12.6016 2.67676 -16.9434 7.00293z" />
    <glyph glyph-name="long-arrow-right-primary" unicode="&#xf178;" horiz-adv-x="448" 
d="M305.44 344.95l135.56 -135.49l0.0595703 -0.0595703c4.32324 -4.53027 6.97949 -10.6641 6.97949 -17.4141c0 -6.74902 -2.65625 -12.8965 -6.97949 -17.4268l-0.0595703 -0.0595703l-135.56 -135.5c-4.34473 -4.34375 -10.3447 -7.03223 -16.9668 -7.03223
c-6.62305 0 -12.6299 2.68848 -16.9736 7.03223l-17 17c-4.34375 4.34375 -7.03223 10.3438 -7.03223 16.9668s2.68848 12.6289 7.03223 16.9736l101.07 102.06l-101.07 102c-4.34375 4.34375 -7.03223 10.3438 -7.03223 16.9668s2.68848 12.6289 7.03223 16.9736l17 17
c4.34473 4.34668 10.3467 7.03711 16.9717 7.03711c6.62012 0 12.624 -2.68652 16.9688 -7.02734z" />
    <glyph glyph-name="female-primary" unicode="&#xf182;" horiz-adv-x="256" 
d="M80 304h11.3701c11.1367 -5.10645 23.5215 -7.95312 36.5654 -7.95312s25.5781 2.84668 36.7148 7.95312h11.3496c11.2334 -0.00195312 20.6729 -7.74902 23.2803 -18.1797l48 -192c0.466797 -1.86719 0.713867 -3.82031 0.713867 -5.83105
c0 -13.2441 -10.75 -23.9873 -23.9941 -23.9893h-56v-104c0 -13.2461 -10.7539 -24 -24 -24h-32c-13.2461 0 -24 10.7539 -24 24v104h-56c-13.2393 0.0078125 -23.9863 10.7588 -23.9863 24c0 2.01074 0.25 3.95312 0.716797 5.82031l48 192
c2.60645 10.4277 12.04 18.1729 23.2695 18.1797z" />
    <glyph glyph-name="male-primary" unicode="&#xf183;" horiz-adv-x="192" 
d="M48 304h11.3604c11.1367 -5.10645 23.5205 -7.95312 36.5654 -7.95312c13.0439 0 25.5771 2.84668 36.7139 7.95312h11.3604c26.4922 0 48 -21.5078 48 -48v-136c0 -13.2461 -10.7539 -24 -24 -24h-16v-136c0 -13.2461 -10.7539 -24 -24 -24h-64
c-13.2461 0 -24 10.7539 -24 24v136h-16c-13.2461 0 -24 10.7539 -24 24v136c0 26.4922 21.5078 48 48 48z" />
    <glyph glyph-name="bug-primary" unicode="&#xf188;" 
d="M512 159.1c-0.480469 -17.4297 -15.2197 -31.0996 -32.6602 -31.0996h-55.3398v-16v-0.188477c0 -21.7402 -4.92578 -42.4814 -13.5996 -60.9512l60.2295 -60.2305c5.79297 -5.79297 9.37793 -13.7939 9.37793 -22.625c0 -17.6641 -14.3398 -32.0039 -32.0029 -32.0039
c-8.83203 0 -16.8418 3.57617 -22.6348 9.36914l-54.7305 54.7402c-24.668 -20.043 -56.1133 -32.0615 -90.3438 -32.0615c-0.0673828 0 -0.227539 -0.0488281 -0.295898 -0.0488281v244c0 6.62305 -5.37695 12 -12 12h-24c-6.62305 0 -12 -5.37695 -12 -12v-244h-0.204102
c-34.2295 0 -65.7676 12.0674 -90.4355 32.1104l-54.7305 -54.7402c-5.79297 -5.79297 -13.7939 -9.37793 -22.625 -9.37793c-17.6641 0 -32.0039 14.3398 -32.0039 32.0029c0 8.83203 3.57617 16.8418 9.36914 22.6348l60.2295 60.2305
c-8.67383 18.4697 -13.5225 39.0869 -13.5225 60.8281c0 0.0625 -0.0771484 0.249023 -0.0771484 0.311523v16h-55.3301c-17.4395 0 -32.1797 13.6699 -32.6699 31.0996c-0.00878906 0.304688 -0.0126953 0.609375 -0.0126953 0.915039c0 17.6621 14.3389 32 32 32
c0.00390625 0 0.00878906 -0.0146484 0.0126953 -0.0146484h56v58.7402l-46.6299 46.6299c-5.79297 5.79297 -9.37793 13.7939 -9.37793 22.625c0 17.6641 14.3398 32.0039 32.0029 32.0039c8.83203 0 16.8418 -3.57617 22.6348 -9.36914l54.6201 -54.6299h229.49
l54.6299 54.6299c5.79297 5.79297 13.7939 9.37793 22.625 9.37793c17.6641 0 32.0039 -14.3398 32.0039 -32.0029c0 -8.83203 -3.57617 -16.8418 -9.36914 -22.6348l-46.6299 -46.6299v-58.7402h56h0.0126953c17.6611 0 32 -14.3389 32 -32
c0 -0.305664 -0.00390625 -0.595703 -0.0126953 -0.900391z" />
    <glyph glyph-name="caret-square-left-primary" unicode="&#xf191;" horiz-adv-x="448" 
d="M288 75.4004c0 -10.1406 -14.0703 -15.21 -22.29 -8l-133.89 116.6c-2.33203 1.9043 -3.82227 4.80078 -3.82227 8.04395c0 3.24219 1.49023 6.13184 3.82227 8.03613l133.89 116.57c8.21973 7.15918 22.29 2.08984 22.29 -8.05078v-233.199z" />
    <glyph glyph-name="dot-circle-primary" unicode="&#xf192;" 
d="M256 112c-44.1533 0 -80 35.8467 -80 80s35.8467 80 80 80s80 -35.8467 80 -80c-0.0498047 -44.1299 -35.8701 -79.9502 -80 -80z" />
    <glyph glyph-name="lira-sign-primary" unicode="&#xf195;" horiz-adv-x="384" 
d="M64 -20v424c0 6.62305 5.37695 12 12 12h56c6.62305 0 12 -5.37695 12 -12v-372c86.1797 0 168 48 168 148.75c0 6.33984 5.63965 11.25 12 11.25h48c6.62305 0 12 -5.37695 12 -12v-0.419922c-5.16016 -133.75 -94.3301 -211.58 -228.42 -211.58h-79.5801
c-6.62305 0 -12 5.37695 -12 12z" />
    <glyph glyph-name="envelope-square-primary" unicode="&#xf199;" horiz-adv-x="448" 
d="M224 128c26.8799 -0.129883 51 22 64.7197 32.0303c61.9502 44.96 81.2803 59.3994 95.2803 70.2002v-142.23c0 -13.2461 -10.7539 -24 -24 -24h-272c-13.2461 0 -24 10.7539 -24 24v142.23c14 -10.8008 33.3301 -25.2305 95.2998 -70.2305
c14.1602 -10.3301 37.9805 -32.1299 64.7002 -32zM360 320c13.2461 0 24 -10.7539 24 -24v-25.1699c-24.3701 -18.9297 -23.4297 -19.1201 -114.12 -84.9297c-10.5 -7.66016 -31.3896 -26.1201 -45.8799 -25.9004c-14.5 -0.219727 -35.3701 18.2305 -45.8799 25.9004
c-90.6904 65.8096 -89.7705 65.9297 -114.12 84.9297v25.1699c0 13.2461 10.7539 24 24 24h272z" />
    <glyph glyph-name="building-primary" unicode="&#xf1ad;" horiz-adv-x="448" 
d="M436 -32c6.62305 0 12 -5.37695 12 -12v-20h-448v20c0 6.62305 5.37695 12 12 12h20v456c0 13.2461 10.7539 24 24 24h336c13.2461 0 24 -10.7539 24 -24v-456h20zM128 372v-40c0 -6.62305 5.37695 -12 12 -12h40c6.62305 0 12 5.37695 12 12v40
c0 6.62305 -5.37695 12 -12 12h-40c-6.62305 0 -12 -5.37695 -12 -12zM128 276v-40c0 -6.62305 5.37695 -12 12 -12h40c6.62305 0 12 5.37695 12 12v40c0 6.62305 -5.37695 12 -12 12h-40c-6.62305 0 -12 -5.37695 -12 -12zM180 128c6.62305 0 12 5.37695 12 12v40
c0 6.62305 -5.37695 12 -12 12h-40c-6.62305 0 -12 -5.37695 -12 -12v-40c0 -6.62305 5.37695 -12 12 -12h40zM256 -32v84c0 6.62305 -5.37695 12 -12 12h-40c-6.62305 0 -12 -5.37695 -12 -12v-84h64zM320 140v40c0 6.62305 -5.37695 12 -12 12h-40
c-6.62305 0 -12 -5.37695 -12 -12v-40c0 -6.62305 5.37695 -12 12 -12h40c6.62305 0 12 5.37695 12 12zM320 236v40c0 6.62305 -5.37695 12 -12 12h-40c-6.62305 0 -12 -5.37695 -12 -12v-40c0 -6.62305 5.37695 -12 12 -12h40c6.62305 0 12 5.37695 12 12zM320 332v40
c0 6.62305 -5.37695 12 -12 12h-40c-6.62305 0 -12 -5.37695 -12 -12v-40c0 -6.62305 5.37695 -12 12 -12h40c6.62305 0 12 5.37695 12 12z" />
    <glyph glyph-name="child-primary" unicode="&#xf1ae;" horiz-adv-x="384" 
d="M9.37012 329.37c-5.79297 5.79297 -9.37793 13.7939 -9.37793 22.625c0 17.6641 14.3398 32.0039 32.0029 32.0039c8.83203 0 16.8418 -3.57617 22.6348 -9.36914l86.6201 -86.6299h101.5l86.6201 86.6299c5.79297 5.79297 13.7939 9.37793 22.625 9.37793
c17.6641 0 32.0039 -14.3398 32.0039 -32.0029c0 -8.83203 -3.57617 -16.8418 -9.36914 -22.6348l-94.6299 -94.6201v-266.75c0 -17.6611 -14.3389 -32 -32 -32h-16c-17.6611 0 -32 14.3389 -32 32v112h-16v-112c0 -17.6611 -14.3389 -32 -32 -32h-16
c-17.6611 0 -32 14.3389 -32 32v266.75z" />
    <glyph glyph-name="paw-primary" unicode="&#xf1b0;" 
d="M474.84 286.72c29.1602 -6.95996 44.2998 -40.6895 33.8906 -75.3398c-10.4102 -34.6494 -42.4404 -57.0898 -71.5605 -50.1299s-44.2998 40.6904 -33.8896 75.3398c10.4102 34.6504 42.4395 57.1299 71.5596 50.1299zM37.1699 286.72
c29.1201 6.95996 61.1602 -15.4697 71.5605 -50.1201c10.3994 -34.6494 -4.77051 -68.3799 -33.8906 -75.3398s-61.1602 15.5205 -71.5596 50.1299c-10.4004 34.6104 4.76953 68.3799 33.8896 75.3301zM150.57 414.61c30.9395 8.13965 65.5596 -20.4502 77.4297 -63.8701
s-3.62012 -85.2305 -34.5498 -93.3604c-30.9307 -8.12988 -65.6201 20.4502 -77.46 63.8701s3.63965 85.2197 34.5801 93.3604zM361.45 414.61c30.9395 -8.15039 46.4297 -49.9404 34.5898 -93.3604s-46.5205 -72.0098 -77.46 -63.8701
c-30.9404 8.13965 -46.4102 49.9404 -34.5801 93.3604s46.5098 72.0195 77.4502 63.8701z" />
    <glyph glyph-name="cube-primary" unicode="&#xf1b2;" 
d="M448 102.84l-160 -80v148.9l160 65v-133.9z" />
    <glyph glyph-name="cubes-primary" unicode="&#xf1b3;" 
d="M153 10.3203v79.0898l85 38.7998v-75.3896zM393 89.4102l85 38.7998v-75.3896l-85 -42.5v79.0898zM273 201.3v68.1904l85 37v-73.29z" />
    <glyph glyph-name="recycle-primary" unicode="&#xf1b8;" 
d="M184.56 186.12c3.23047 -14 -12.0791 -24.5898 -24.0791 -17.1201l-135.681 84.7305c-12.1201 7.5498 -8.95996 25.9697 4.87988 29.1592l110.25 25.46c1.15723 0.266602 2.35156 0.398438 3.58789 0.398438c7.59277 0 13.957 -5.2998 15.5928 -12.3984zM292.69 123.33
c10.0693 10.0703 27.3096 2.90039 27.3096 -11.3301v-159.99c0 -14.3096 -17.3096 -21.3096 -27.3096 -11.3096l-80 80c-2.89746 2.89648 -4.69043 6.90137 -4.69043 11.3174s1.79297 8.41602 4.69043 11.3125zM419.36 362.33
c12.0693 7.5498 27.2598 -3.33008 24.0693 -17.21l-25.4102 -110.25c-1.63477 -7.09961 -7.98926 -12.4092 -15.582 -12.4092c-1.24023 0 -2.44824 0.141602 -3.60742 0.40918l-110.24 25.4502c-13.8799 3.20996 -16.8799 21.6299 -4.87988 29.1602z" />
    <glyph glyph-name="tree-primary" unicode="&#xf1bb;" horiz-adv-x="384" 
d="M23.1396 32c-9.25098 0 -17.2793 5.40723 -21 13.25c-1.35449 2.86328 -2.11328 6.06348 -2.11328 9.43945c0 5.68066 2.1377 10.8926 5.66406 14.8105l79.8896 90.5h-30.5801c-0.0996094 -0.000976562 -0.199219 -0.00195312 -0.298828 -0.00195312
c-9.07129 0 -16.8896 5.30762 -20.5312 13.002c-1.37109 2.875 -2.13965 6.0918 -2.13965 9.4873c0 5.53906 2.03613 10.6348 5.41016 14.5127l78.1396 91h-28.8896h-0.0957031c-9.29395 0 -17.2773 5.58789 -20.7744 13.5996
c-1.16309 2.69922 -1.80762 5.67285 -1.80762 8.7959c0 5.9043 2.29199 11.2969 6.04688 15.2842l110.28 117.48c6 6.4502 17.29 6.4502 23.3203 0l110.27 -117.48c3.75684 -3.98438 6.06152 -9.35352 6.06152 -15.2568c0 -3.125 -0.65625 -6.12305 -1.82129 -8.82324
c-3.49414 -8.01074 -11.4883 -13.6172 -20.7812 -13.6172c-0.0302734 0 -0.0478516 0.0175781 -0.0791016 0.0175781h-28.8896l78.1299 -90.8896c3.38574 -3.87012 5.43945 -8.93555 5.43945 -14.4766c0 -3.39844 -0.780273 -6.64941 -2.15918 -9.52344
c-3.61816 -7.75293 -11.4863 -13.1309 -20.6006 -13.1309c-0.0644531 0 -0.114258 0.0195312 -0.179688 0.0205078h-30.6299l79.8896 -90.4902c3.53223 -3.91895 5.68262 -9.10645 5.68262 -14.792c0 -3.37598 -0.766602 -6.60449 -2.12207 -9.46777
c-3.7207 -7.84277 -11.7139 -13.2705 -20.9648 -13.2705c-0.015625 0 -0.0185547 0.0205078 -0.0351562 0.0205078h-337.73z" />
    <glyph glyph-name="database-primary" unicode="&#xf1c0;" horiz-adv-x="448" 
d="M-1 112c48.1201 -33.1396 136.21 -48.5703 224 -48.5703s175.87 15.4307 224 48.5703v-102.86c0 -40.2793 -100.33 -73.1396 -224 -73.1396s-224 32.8604 -224 73.1396v102.86zM223 223.43c87.79 0 175.87 15.4307 224 48.5703v-102.86
c0 -40.2793 -100.33 -73.1396 -224 -73.1396s-224 32.8604 -224 73.1396v102.86c48.1201 -33.1396 136.21 -48.5703 224 -48.5703z" />
    <glyph glyph-name="life-ring-primary" unicode="&#xf1cd;" 
d="M347 222.54c-9.58301 28.4209 -32.0391 50.877 -60.46 60.46l111.95 112c23.6348 -16.625 43.8848 -36.875 60.5098 -60.5098zM165 161.46c9.58301 -28.4209 32.0391 -50.877 60.46 -60.46l-111.96 -112.04c-23.6309 16.6221 -43.8779 36.8691 -60.5 60.5zM53 334.46
c16.625 23.6348 36.875 43.915 60.5098 60.54l111.99 -112.04c-28.4453 -9.58008 -50.9199 -32.0547 -60.5 -60.5zM286.54 101c28.4209 9.58301 50.877 32.0391 60.46 60.46l112.04 -111.96c-16.6221 -23.6309 -36.8691 -43.8779 -60.5 -60.5z" />
    <glyph glyph-name="paper-plane-primary" unicode="&#xf1d8;" 
d="M511.59 420l-72 -432c-1.92285 -11.3652 -11.8232 -20.0332 -23.7324 -20.0332c-3.27734 0 -6.41895 0.644531 -9.26758 1.83301l-214.87 90.3301l225.17 274.34c4.7002 5.7002 -3.09961 13.2002 -8.59961 8.2998l-280.29 -252.77l-113.31 44.1699
c-8.64746 3.62988 -14.7266 12.1807 -14.7266 22.1396c0 9.0957 5.06055 16.9893 12.5264 21.0605l463.51 267.399c17.29 10 39 -4.59961 35.5898 -24.7695z" />
    <glyph glyph-name="history-primary" unicode="&#xf1da;" 
d="M288 296v-104.35l40.7002 -31.6504c5.64746 -4.39258 9.28418 -11.2529 9.28418 -18.9551c0 -5.54395 -1.91211 -10.6602 -5.07422 -14.7246l-9.82031 -12.6201c-4.39258 -5.64844 -11.252 -9.28418 -18.9551 -9.28418c-5.54395 0 -10.6592 1.91211 -14.7246 5.07422
l-65.4102 50.8594v135.65c0 13.2461 10.7539 24 24 24h16c13.2461 0 24 -10.7539 24 -24z" />
    <glyph glyph-name="share-alt-primary" unicode="&#xf1e0;" horiz-adv-x="448" 
d="M96 288c52.9834 0 96 -43.0166 96 -96s-43.0166 -96 -96 -96s-96 43.0166 -96 96s43.0166 96 96 96zM352 256c-52.9834 0 -96 43.0166 -96 96s43.0166 96 96 96s96 -43.0166 96 -96s-43.0166 -96 -96 -96zM352 128c52.9834 0 96 -43.0166 96 -96s-43.0166 -96 -96 -96
s-96 43.0166 -96 96s43.0166 96 96 96z" />
    <glyph glyph-name="share-alt-square-primary" unicode="&#xf1e1;" horiz-adv-x="448" 
d="M360 96c-0.0273438 -30.8848 -25.1094 -55.9502 -56 -55.9502c-30.9072 0 -56 25.0928 -56 56c0 4.78809 0.607422 9.41309 1.74023 13.8506l-68 40.7695c-9.96094 -9.10645 -23.2197 -14.665 -37.7656 -14.665c-30.9072 0 -56 25.0928 -56 56s25.0928 56 56 56
c14.5459 0 27.8047 -5.56836 37.7656 -14.6748l68 40.7695c-1.14453 4.45898 -1.75293 9.13184 -1.75293 13.9453c0 30.9072 25.0928 56 56 56s56 -25.0928 56 -56s-25.0928 -56 -56 -56c-14.5342 0 -27.8096 5.53223 -37.7676 14.625l-68 -40.7695
c1.13281 -4.4541 1.73535 -9.11914 1.73535 -13.9238c0 -4.80371 -0.602539 -9.42285 -1.73535 -13.877l68 -40.7695c9.95996 9.10254 23.2158 14.6592 37.7588 14.6592c30.9053 0 56.0186 -25.085 56.0215 -55.9893z" />
    <glyph glyph-name="bomb-primary" unicode="&#xf1e2;" 
d="M415 247.1l-17.4004 -17.3994c11.752 -26.002 18.4004 -55.0205 18.4004 -85.3887v-0.211914c0 -114.899 -93.0996 -208 -208 -208s-208 93 -208 207.9s93.0996 208 208 208c0.0703125 0 0.307617 -0.106445 0.37793 -0.106445
c30.3682 0 59.2197 -6.54199 85.2217 -18.2939l17.4004 17.4004c4.33008 4.35547 10.332 7.05371 16.9531 7.05371s12.6172 -2.69824 16.9473 -7.05371l70.0996 -70c4.35547 -4.33008 7.05371 -10.332 7.05371 -16.9531s-2.69824 -12.6172 -7.05371 -16.9473zM176 240
c8.83105 0 16 7.16895 16 16s-7.16895 16 -16 16c-52.9453 -0.0830078 -95.917 -43.0547 -96 -96c0 -8.83105 7.16895 -16 16 -16s16 7.16895 16 16c0.0332031 35.3076 28.6924 63.9668 64 64z" />
    <glyph glyph-name="newspaper-primary" unicode="&#xf1ea;" horiz-adv-x="576" 
d="M292 96c6.62305 0 12 -5.37695 12 -12v-8c0 -6.62305 -5.37695 -12 -12 -12h-152c-6.62305 0 -12 5.37695 -12 12v8c0 6.62305 5.37695 12 12 12h152zM292 192c6.62305 0 12 -5.37695 12 -12v-8c0 -6.62305 -5.37695 -12 -12 -12h-152c-6.62305 0 -12 5.37695 -12 12v8
c0 6.62305 5.37695 12 12 12h152zM500 96c6.62305 0 12 -5.37695 12 -12v-8c0 -6.62305 -5.37695 -12 -12 -12h-152c-6.62305 0 -12 5.37695 -12 12v8c0 6.62305 5.37695 12 12 12h152zM500 192c6.62305 0 12 -5.37695 12 -12v-8c0 -6.62305 -5.37695 -12 -12 -12h-152
c-6.62305 0 -12 5.37695 -12 12v8c0 6.62305 5.37695 12 12 12h152zM0 320c0 17.6611 14.3389 32 32 32h32v-320c0 -0.00390625 0.0146484 -0.00878906 0.0146484 -0.0126953c0 -17.6611 -14.3379 -32 -32 -32c-0.305664 0 -0.610352 0.00390625 -0.915039 0.0126953
c-17.4297 0.490234 -31.0996 15.2305 -31.0996 32.6699v287.33z" />
    <glyph glyph-name="at-primary" unicode="&#xf1fa;" 
d="M391.79 283.42l-23.46 -121.13c-3.42969 -17.1504 -3.87012 -29.5498 13.4795 -30c0.730469 0.0800781 1.4502 0.200195 2.1709 0.299805v-62c-9.69727 -1.3252 -19.3584 -2.00195 -29.417 -2.00195c-0.291016 0 -0.582031 0.000976562 -0.873047 0.00195312
c-30.1006 0 -61.1904 0 -70.71 34.1006c-17.6309 -22.6904 -48 -38.3301 -75 -38.3301c-59.2109 0 -96 40.5693 -96 105.87c0 89.2295 63.25 151.449 137.8 151.449c19.5498 0 45.3096 -3.87012 60 -21.7695v0.0898438c0.762695 6.73926 6.48828 11.998 13.4297 12h45
c1.57227 -0.000976562 3.09082 -0.152344 4.58008 -0.44043c11.0586 -2.13965 19.4404 -11.8633 19.4404 -23.543c0 -1.57227 -0.151367 -3.1084 -0.44043 -4.59668zM234.32 135.57c24.29 0 58.1602 27.6699 58.1602 72.7295c0 25.5303 -13.3105 40.7705 -35.6006 40.7705
c-27.8496 0 -58.6299 -27.7305 -58.6299 -72.7305c0 -25.1494 13.8203 -40.7695 36.0703 -40.7695z" />
    <glyph glyph-name="birthday-cake-primary" unicode="&#xf1fd;" horiz-adv-x="448" 
d="M448 64c-28 0 -31.2598 32 -74.5 32c-43.4297 0 -46.8301 -32 -74.75 -32c-27.7002 0 -31.4502 32 -74.75 32c-42.8398 0 -47.2197 -32 -74.5 -32c-28.1504 0 -31.2002 32 -74.75 32s-46.6504 -32 -74.75 -32v80c0 26.4922 21.5078 48 48 48h16v144h64v-144h64v144h64
v-144h64v144h64v-144h16c26.4922 0 48 -21.5078 48 -48v-80z" />
    <glyph glyph-name="chart-area-primary" unicode="&#xf1fe;" 
d="M390.1 283.8l89.9004 -187.8h-384v104l86.7998 144.7c2.09961 3.49219 5.92578 5.83203 10.2939 5.83203c3.93555 0 7.41699 -1.90137 9.60645 -4.83203l85.2998 -113.7l84.7002 56.5c1.89844 1.25977 4.1748 1.99316 6.62109 1.99316
c4.72559 0 8.82227 -2.71875 10.7783 -6.69336z" />
    <glyph glyph-name="toggle-off-primary" unicode="&#xf204;" horiz-adv-x="576" 
d="M192 64c-70.6455 0 -128 57.3545 -128 128s57.3545 128 128 128s128 -57.3545 128 -128v-0.0712891c0 -70.6064 -57.3232 -127.93 -127.93 -127.93c-0.0244141 0 -0.046875 0.000976562 -0.0703125 0.000976562z" />
    <glyph glyph-name="toggle-on-primary" unicode="&#xf205;" horiz-adv-x="576" 
d="M384 384c106 0 192 -86 192 -192s-86 -192 -192 -192h-192c-106 0 -192 86 -192 192s86 192 192 192h192zM384 64c0.0234375 0 0.0458984 -0.000976562 0.0703125 -0.000976562c70.6064 0 127.93 57.3232 127.93 127.93v0.0712891c0 70.6455 -57.3545 128 -128 128
s-128 -57.3545 -128 -128s57.3545 -128 128 -128z" />
    <glyph glyph-name="bicycle-primary" unicode="&#xf206;" horiz-adv-x="640" 
d="M495.83 108.55l-85.4199 137.681l-86 -138.86c-4.23145 -6.83691 -11.7861 -11.3701 -20.4102 -11.3701h-184c-13.2422 0.00390625 -23.9766 10.7822 -23.9766 24.0254c0 4.62207 1.30859 8.94043 3.57617 12.6045l101.131 163.37h-48.7305
c-13.0938 0.00292969 -23.751 10.5225 -23.9902 23.5596c-0.240234 13.4404 11.0898 24.4404 24.5303 24.4404h87.46c8.83105 0 16 -7.16895 16 -16v-16h113.55l-14.8994 24h-50.6504c-8.83105 0 -16 7.16895 -16 16v16c0 8.83105 7.16895 16 16 16h64
c8.61133 0 16.1553 -4.51953 20.3896 -11.3398l148.19 -238.83c1.51074 -2.44238 2.41016 -5.32715 2.41016 -8.40723c0 -5.73438 -3.02246 -10.7676 -7.56055 -13.5928l-13.5996 -8.44043c-2.44141 -1.50879 -5.3252 -2.40723 -8.40332 -2.40723
c-5.73633 0 -10.7725 3.02637 -13.5967 7.56738zM290.63 144l74.29 120h-127.55l-74.2803 -120h127.54z" />
    <glyph glyph-name="shekel-sign-primary" unicode="&#xf20b;" horiz-adv-x="448" 
d="M328 280v-168c0 -8.83105 -7.16895 -16 -16 -16h-48c-8.83105 0 -16 7.16895 -16 16v168c0 30.9072 -25.0928 56 -56 56h-112v-352c0 -8.83105 -7.16895 -16 -16 -16h-48c-8.83105 0 -16 7.16895 -16 16v408c0 13.2461 10.7539 24 24 24h168
c75.0605 0 136 -60.9395 136 -136z" />
    </font>
</defs>
</svg>
